Subcategories

Marion Brown Quartet - La Placita - Live In Willisau (1977) {2016 Japan Timeless Jazz Master Collection Complete Series}

Posted By: ruskaval
Marion Brown Quartet - La Placita - Live In Willisau (1977) {2016 Japan Timeless Jazz Master Collection Complete Series}

Marion Brown Quartet - La Placita - Live In Willisau (1977) {2016 Japan Timeless Jazz Master Collection Complete Series}
EAC rip (secure mode) | FLAC (tracks)+CUE+LOG -> 206 Mb | MP3 @320 -> 108 Mb
Full Artwork @ 600 dpi (png) -> 192 Mb | 5% repair rar
© 1977, 2016 Timeless Records / Solid Records Japan / Ultra-Vibe | CDSOL-6440
Jazz / Post Bop / Saxophone

Reissue with the latest remastering and the original cover artwork. Comes with a description written in Japanese. A beautiful late 70s set from reedman Marion Brown – maybe not as all-out adventurous as some of his earliest material, but still filled with a strong sense of spirit and soul! The group here is a bit unusual – as Brown's alto is set up with the guitar of Brandon K Ross, bass of Jack Gregg, and drums of Steve McCraven – in a format that often has the ringing tones of Ross' guitar working nicely with the introspective tones of Brown's alto sax. Some tunes are spacious and have a sense of sonic exploration, others are a bit more swinging, with some unusual rhythmic inflections from the guitar – and McCraven's nicely open sensibilities on the drums. And while the whole thing maybe isn't as all-out avant, the shift is actually a nice one in showing some of Brown's more personal, spiritual currents too.
Marion Brown Quartet - La Placita - Live In Willisau (1977) {2016 Japan Timeless Jazz Master Collection Complete Series}


Personnel:
Marion Brown - alto sax
Brandon K. Ross - guitar
Jack Gregg - bass
Steve McCraven - drums

Recorded live in Willisau, Swizerland, March 26, 1977

tracklist:
01 - La Placita
02 - Fortunato
03 - Sonnymoon For Two
04 - Bosco
05 - I'm Sorry
06 - Soft Wind

Exact Audio Copy V1.3 from 2. September 2016

EAC extraction logfile from 28. July 2017, 17:15

Marion Brown Quartet / La Placita - Live In Willisau

Used drive : TSSTcorpCDDVDW SE-208DB Adapter: 1 ID: 1

Read mode : Secure
Utilize accurate stream : Yes
Defeat audio cache : Yes
Make use of C2 pointers : No

Read offset correction : 6
Overread into Lead-In and Lead-Out : No
Fill up missing offset samples with silence : Yes
Delete leading and trailing silent blocks : No
Null samples used in CRC calculations : Yes
Used interface : Native Win32 interface for Win NT & 2000
Gap handling : Appended to previous track

Used output format : User Defined Encoder
Selected bitrate : 1024 kBit/s
Quality : High
Add ID3 tag : No
Command line compressor : C:\Program Files (x86)\FLAC Frontend\tools\flac.exe
Additional command line options : -8 -V -T "ARTIST=%artist%" -T "TITLE=%title%" -T "ALBUM=%albumtitle%" -T "DATE=%year%" -T "TRACKNUMBER=%tracknr%" -T "TOTALTRACKS=%numtracks%" -T "GENRE=%genre%" -T "ALBUMARTIST=%albumartist%" -T "ALBUM ARTIST=%albumartist%" -T "COMMENT=EAC Secure Mode, Test & Copy, AccurateRip, FLAC -8" %source%


TOC of the extracted CD

Track | Start | Length | Start sector | End sector
––––––––––––––––––––––––––––-
1 | 0:00.00 | 9:24.73 | 0 | 42372
2 | 9:24.73 | 8:15.60 | 42373 | 79557
3 | 17:40.58 | 5:19.10 | 79558 | 103492
4 | 22:59.68 | 10:05.07 | 103493 | 148874
5 | 33:05.00 | 7:05.00 | 148875 | 180749
6 | 40:10.00 | 5:43.29 | 180750 | 206503


Track 1

Filename E:\EAC_RIP\Marion Brown Quartet - La Placita - Live In Willisau (1977) [FLAC] {Timeless Japan CDSOL-6440 rel 2016}\01 - La Placita.wav

Pre-gap length 0:00:02.00

Peak level 97.5 %
Extraction speed 1.1 X
Track quality 100.0 %
Test CRC 7F0D8686
Copy CRC 7F0D8686
Track not present in AccurateRip database
Copy OK

Track 2

Filename E:\EAC_RIP\Marion Brown Quartet - La Placita - Live In Willisau (1977) [FLAC] {Timeless Japan CDSOL-6440 rel 2016}\02 - Fortunato.wav

Peak level 97.6 %
Extraction speed 1.3 X
Track quality 100.0 %
Test CRC 03EAEDE1
Copy CRC 03EAEDE1
Track not present in AccurateRip database
Copy OK

Track 3

Filename E:\EAC_RIP\Marion Brown Quartet - La Placita - Live In Willisau (1977) [FLAC] {Timeless Japan CDSOL-6440 rel 2016}\03 - Sonnymoon For Two.wav

Peak level 96.7 %
Extraction speed 1.4 X
Track quality 100.0 %
Test CRC 3CF1F624
Copy CRC 3CF1F624
Track not present in AccurateRip database
Copy OK

Track 4

Filename E:\EAC_RIP\Marion Brown Quartet - La Placita - Live In Willisau (1977) [FLAC] {Timeless Japan CDSOL-6440 rel 2016}\04 - Bosco.wav

Peak level 97.7 %
Extraction speed 1.6 X
Track quality 100.0 %
Test CRC A1629ADE
Copy CRC A1629ADE
Track not present in AccurateRip database
Copy OK

Track 5

Filename E:\EAC_RIP\Marion Brown Quartet - La Placita - Live In Willisau (1977) [FLAC] {Timeless Japan CDSOL-6440 rel 2016}\05 - I'm Sorry.wav

Peak level 97.3 %
Extraction speed 1.7 X
Track quality 100.0 %
Test CRC 196187F8
Copy CRC 196187F8
Track not present in AccurateRip database
Copy OK

Track 6

Filename E:\EAC_RIP\Marion Brown Quartet - La Placita - Live In Willisau (1977) [FLAC] {Timeless Japan CDSOL-6440 rel 2016}\06 - Soft Wind.wav

Peak level 97.8 %
Extraction speed 1.7 X
Track quality 100.0 %
Test CRC 6445F1D0
Copy CRC 6445F1D0
Track not present in AccurateRip database
Copy OK


None of the tracks are present in the AccurateRip database

No errors occurred

End of status report

–– CUETools DB Plugin V2.1.6

[CTDB TOCID: TUIVm8cAHxiQ793rMMvtinurXyI-] found
Submit result: already submitted
Track | CTDB Status
1 | (3/3) Accurately ripped
2 | (3/3) Accurately ripped
3 | (3/3) Accurately ripped
4 | (3/3) Accurately ripped
5 | (3/3) Accurately ripped
6 | (3/3) Accurately ripped


==== Log checksum AD61E6626B36607BA4494AB4EEC61EE8410D589DA15C14DB0AA265D451618B43 ====


Marion Brown Quartet - La Placita - Live In Willisau (1977) {2016 Japan Timeless Jazz Master Collection Complete Series}

Marion Brown Quartet - La Placita - Live In Willisau (1977) {2016 Japan Timeless Jazz Master Collection Complete Series}


see more Japan Timeless Jazz Master Collection…


===