Subcategories

Marrakesh Blues - Ashqelon (2017)

Posted By: Domestos
Marrakesh Blues - Ashqelon (2017)

Marrakesh Blues - Ashqelon (2017)
EAC Rip | FLAC (tracks+.cue, log) ~ 353.79 Mb + 69.89 Mb (Scans) | 58:14
Folk rock | Country: Israel | Label: Marrakech Blues

An original Israeli musical ensemble that combines the American Folk Blues with authentic Arabic music, all mixed with contemporary psycholodia and dream pop.



Track List:
1. Haruch 4:46
2. Saba Jacob 4:17
3. He Amra 3:56
4. Anashim Tovim 2:37
5. Kama Sheraziti 4:14
6. Ashqelon 4:42
7. Hayom Yored 3:46
8. Zman Tas 2:04
9. Klipot 2:12
10. Heptom zarhom 2:49
11. Hanhar 2:19
12. Takua Ito 3:23
13. Zman Tas (Acoustic) 2:58
14. Hayom Yored (Acoustic) 3:45
15. Ashqelon (Acoustic) 4:46
16. Saba Jacob (Acoustic) 4:09

Amir Lev (עמיר לב) - producer
Dudi Gabay (דודי גבאי) - composed, lyrics, acoustic guitar, vocals
Av'ad Abu Shani (עוואד אבו שני) - oud, violin
Ori Winokur (אורי וינקור) - bass, recorded by, mixed by, mastered by
Nave Koren (נווה קורן) - drums

Marrakesh Blues - Ashqelon (2017)

Exact Audio Copy V1.3 from 2. September 2016

EAC extraction logfile from 8. April 2019, 7:39

אשקלון / מרקש בלוז

Used drive : HL-DT-STDVDRAM GH24NSB0 Adapter: 1 ID: 0

Read mode : Secure
Utilize accurate stream : Yes
Defeat audio cache : Yes
Make use of C2 pointers : No

Read offset correction : 6
Overread into Lead-In and Lead-Out : No
Fill up missing offset samples with silence : Yes
Delete leading and trailing silent blocks : No
Null samples used in CRC calculations : Yes
Used interface : Native Win32 interface for Win NT & 2000
Gap handling : Appended to previous track

Used output format : User Defined Encoder
Selected bitrate : 1024 kBit/s
Quality : High
Add ID3 tag : No
Command line compressor : C:\Program Files (x86)\Exact Audio Copy\FLAC\FLAC.EXE
Additional command line options : -V -8 -T "Genre=%genre%" -T "Artist=%artist%" -T "Title=%title%" -T "Album=%albumtitle%" -T "Date=%year%" -T "Tracknumber=%tracknr%" -T "Comment=%comment%" %source%


TOC of the extracted CD

Track | Start | Length | Start sector | End sector
––––––––––––––––––––––––––––-
1 | 0:00.00 | 4:48.47 | 0 | 21646
2 | 4:48.47 | 4:19.31 | 21647 | 41102
3 | 9:08.03 | 3:58.35 | 41103 | 58987
4 | 13:06.38 | 2:39.65 | 58988 | 70977
5 | 15:46.28 | 4:16.51 | 70978 | 90228
6 | 20:03.04 | 4:48.14 | 90229 | 111842
7 | 24:51.18 | 3:48.33 | 111843 | 128975
8 | 28:39.51 | 2:59.23 | 128976 | 142423
9 | 31:38.74 | 2:14.26 | 142424 | 152499
10 | 33:53.25 | 2:51.39 | 152500 | 165363
11 | 36:44.64 | 2:21.20 | 165364 | 175958
12 | 39:06.09 | 3:25.44 | 175959 | 191377
13 | 42:31.53 | 3:00.40 | 191378 | 204917
14 | 45:32.18 | 3:47.66 | 204918 | 222008
15 | 49:20.09 | 4:44.74 | 222009 | 243382
16 | 54:05.08 | 4:09.08 | 243383 | 262065


Track 1

Filename D:\Music\MG rips\אשקלון - מרקש בלוז - 2017\01 - הרוח.wav

Pre-gap length 0:00:02.00

Peak level 100.0 %
Extraction speed 1.2 X
Track quality 100.0 %
Test CRC A5BE1848
Copy CRC A5BE1848
Track not present in AccurateRip database
Copy OK

Track 2

Filename D:\Music\MG rips\אשקלון - מרקש בלוז - 2017\02 - סבא יעקב.wav

Peak level 100.0 %
Extraction speed 1.3 X
Track quality 100.0 %
Test CRC C3954BA1
Copy CRC C3954BA1
Track not present in AccurateRip database
Copy OK

Track 3

Filename D:\Music\MG rips\אשקלון - מרקש בלוז - 2017\03 - היא אמרה.wav

Peak level 100.0 %
Extraction speed 1.4 X
Track quality 100.0 %
Test CRC DA596810
Copy CRC DA596810
Track not present in AccurateRip database
Copy OK

Track 4

Filename D:\Music\MG rips\אשקלון - מרקש בלוז - 2017\04 - אנשים טובים.wav

Peak level 100.0 %
Extraction speed 1.4 X
Track quality 100.0 %
Test CRC 5B999AA2
Copy CRC 5B999AA2
Track not present in AccurateRip database
Copy OK

Track 5

Filename D:\Music\MG rips\אשקלון - מרקש בלוז - 2017\05 - רציתי.wav

Peak level 100.0 %
Extraction speed 1.6 X
Track quality 100.0 %
Test CRC E3CD2577
Copy CRC E3CD2577
Track not present in AccurateRip database
Copy OK

Track 6

Filename D:\Music\MG rips\אשקלון - מרקש בלוז - 2017\06 - אשקלון.wav

Peak level 99.8 %
Extraction speed 1.5 X
Track quality 99.9 %
Test CRC DD05CE4E
Copy CRC DD05CE4E
Track not present in AccurateRip database
Copy OK

Track 7

Filename D:\Music\MG rips\אשקלון - מרקש בלוז - 2017\07 - היום יורד.wav

Peak level 100.0 %
Extraction speed 1.7 X
Track quality 100.0 %
Test CRC E1522247
Copy CRC E1522247
Track not present in AccurateRip database
Copy OK

Track 8

Filename D:\Music\MG rips\אשקלון - מרקש בלוז - 2017\08 - זרים.wav

Peak level 100.0 %
Extraction speed 1.7 X
Track quality 100.0 %
Test CRC 11190E81
Copy CRC 11190E81
Track not present in AccurateRip database
Copy OK

Track 9

Filename D:\Music\MG rips\אשקלון - מרקש בלוז - 2017\09 - קליפות.wav

Peak level 100.0 %
Extraction speed 1.6 X
Track quality 100.0 %
Test CRC 568F6208
Copy CRC 568F6208
Track not present in AccurateRip database
Copy OK

Track 10

Filename D:\Music\MG rips\אשקלון - מרקש בלוז - 2017\10 - הבלדה על הפטום זרהום.wav

Peak level 100.0 %
Extraction speed 1.8 X
Track quality 100.0 %
Test CRC A4539CD0
Copy CRC A4539CD0
Track not present in AccurateRip database
Copy OK

Track 11

Filename D:\Music\MG rips\אשקלון - מרקש בלוז - 2017\11 - הנהר.wav

Peak level 98.8 %
Extraction speed 1.8 X
Track quality 100.0 %
Test CRC 40761BB3
Copy CRC 40761BB3
Track not present in AccurateRip database
Copy OK

Track 12

Filename D:\Music\MG rips\אשקלון - מרקש בלוז - 2017\12 - תקוע איתו.wav

Peak level 99.5 %
Extraction speed 2.0 X
Track quality 100.0 %
Test CRC 994F08E2
Copy CRC 994F08E2
Track not present in AccurateRip database
Copy OK

Track 13

Filename D:\Music\MG rips\אשקלון - מרקש בלוז - 2017\13 - זרים - אקוסטית.wav

Peak level 99.5 %
Extraction speed 1.9 X
Track quality 100.0 %
Test CRC 2B5323BD
Copy CRC 2B5323BD
Track not present in AccurateRip database
Copy OK

Track 14

Filename D:\Music\MG rips\אשקלון - מרקש בלוז - 2017\14 - היום יורד - אקוסטית.wav

Peak level 100.0 %
Extraction speed 2.1 X
Track quality 100.0 %
Test CRC 801F81E7
Copy CRC 801F81E7
Track not present in AccurateRip database
Copy OK

Track 15

Filename D:\Music\MG rips\אשקלון - מרקש בלוז - 2017\15 - אשקלון - אקוסטית.wav

Peak level 99.2 %
Extraction speed 2.2 X
Track quality 100.0 %
Test CRC 29716D5C
Copy CRC 29716D5C
Track not present in AccurateRip database
Copy OK

Track 16

Filename D:\Music\MG rips\אשקלון - מרקש בלוז - 2017\16 - סבא יעקב - אקוסטית.wav

Peak level 99.6 %
Extraction speed 2.3 X
Track quality 100.0 %
Test CRC 91840568
Copy CRC 91840568
Track not present in AccurateRip database
Copy OK


None of the tracks are present in the AccurateRip database

No errors occurred

End of status report

==== Log checksum 27BB3B107EB7C4439691D59E57255826E2763E776A0CD4803A97CEB1897E681B ====

All thanks go to the Musicgate

More Music in My Blog
Follow My RSS Channel