Subcategories

Marsolais, Jalbert - L'Heritage Beethoven (2009)

Posted By: pgf000
Marsolais, Jalbert - L'Heritage Beethoven (2009)

Marsolais, Jalbert - L'Heritage Beethoven (2009)
EAC Rip | FLAC+CUE+LOG | 250 MB | PDF booklet
Classical | 01:07:06

Consisting entirely of music for horn and piano, this little disc can't hope to sketch out the heritage of Beethoven. But it does more than you might think, for Beethoven's early chamber pieces, now among his least well known, were among the most enthusiastically played in his oeuvre during his lifetime. The fun is primarily in the other three pieces on the album, which are each successful and unsuccessful in different ways. The sonata by Ries closely imitates Beethoven's both in general mood and in a number of local details, all without capturing any of its tension. Carl Czerny, in his Andante e polacca for horn and piano, Op. posth., picks up on the expansive horn part Beethoven wrote for himself and gives the horn and piano an unusually competitive dynamic within the context of the early nineteenth century. The most attractive pieces are the two works by Ignaz Moscheles…
1. Marsolais, Jalbert - Ludwig Van Beethoven - Sonate en Fa maj op. 17 - Allegro moderato (8:34)
2. Marsolais, Jalbert - Ludwig Van Beethoven - Sonate en Fa maj op. 17 - Poco Adagio, quasi andante (1:29)
3. Marsolais, Jalbert - Ludwig Van Beethoven - Sonate en Fa maj op. 17 - Allegro moderato (5:02)
4. Marsolais, Jalbert - Carl Czerny - Andante e polacca op. posth - Andante (3:21)
5. Marsolais, Jalbert - Carl Czerny - Andante e polacca op. posth - Allegro alla Polacca (8:41)
6. Marsolais, Jalbert - Ferdinand Ries - Sonate en fa maj op.34 - Largetto (12:11)
7. Marsolais, Jalbert - Ferdinand Ries - Sonate en fa maj op.34 - Andante (3:57)
8. Marsolais, Jalbert - Ferdinand Ries - Sonate en fa maj op.34 - Rondo Allegro (6:58)
9. Marsolais, Jalbert - Ignaz Moscheles - Theme varie du Feuillet d'Album de Rossini (8:32)
10. Marsolais, Jalbert - Ignaz Moscheles - Introduction et Rondeau Ecossais op. 63 (8:21)
Exact Audio Copy V0.99 prebeta 5 from 4. May 2009

EAC extraction logfile from 4. March 2011, 21:29

Marsolais, Jalbert / L'Heritage Beethoven

Used drive : SlimtypeDVD A DS8A4S Adapter: 1 ID: 0

Read mode : Secure
Utilize accurate stream : Yes
Defeat audio cache : Yes
Make use of C2 pointers : No

Read offset correction : 6
Overread into Lead-In and Lead-Out : No
Fill up missing offset samples with silence : Yes
Delete leading and trailing silent blocks : No
Null samples used in CRC calculations : Yes
Used interface : Native Win32 interface for Win NT & 2000

Used output format : User Defined Encoder
Selected bitrate : 768 kBit/s
Quality : High
Add ID3 tag : Yes
Command line compressor : C:\Program Files (x86)\Exact Audio Copy\FLAC\FLAC.EXE
Additional command line options : -6 -V -T "ARTIST=%a" -T "TITLE=%t" -T "ALBUM=%g" -T "DATE=%y" -T "TRACKNUMBER=%n" -T "GENRE=%m" -T "COMMENT=%e" %s -o %d


TOC of the extracted CD

Track | Start | Length | Start sector | End sector
––––––––––––––––––––––––––––-
1 | 0:00.00 | 8:34.45 | 0 | 38594
2 | 8:34.45 | 1:29.30 | 38595 | 45299
3 | 10:04.00 | 5:02.22 | 45300 | 67971
4 | 15:06.22 | 3:21.34 | 67972 | 83080
5 | 18:27.56 | 8:41.17 | 83081 | 122172
6 | 27:08.73 | 12:11.08 | 122173 | 177005
7 | 39:20.06 | 3:57.38 | 177006 | 194818
8 | 43:17.44 | 6:58.63 | 194819 | 226231
9 | 50:16.32 | 8:32.53 | 226232 | 264684
10 | 58:49.10 | 8:21.70 | 264685 | 302329


Range status and errors

Selected range

Filename C:\Marsolais, Jalbert - L'Heritage Beethoven.wav

Peak level 97.5 %
Range quality 100.0 %
Copy CRC 63780353
Copy OK

No errors occurred


AccurateRip summary

Track 1 not present in database
Track 2 not present in database
Track 3 not present in database
Track 4 not present in database
Track 5 not present in database
Track 6 not present in database
Track 7 not present in database
Track 8 not present in database
Track 9 not present in database
Track 10 not present in database

None of the tracks are present in the AccurateRip database

End of status report


No more mirrors!