Subcategories

Matthias Frey - Trails and Traces (1998)

Posted By: intothe
Matthias Frey - Trails and Traces (1998)

Matthias Frey - Trails and Traces (1998)
Jazz Fusion | EAC rip (FLAC+CUE+LOG) | 419 MB | full artwork
Inakustik | 65:45 | RAR with 5% recovery


Exact Audio Copy V0.99 prebeta 4 from 23. January 2008

EAC extraction logfile from 25. August 2010, 8:26

Matthias Frey / Trails and Traces

Used drive : _NEC DVD_RW ND-3500AG Adapter: 0 ID: 0

Read mode : Secure
Utilize accurate stream : Yes
Defeat audio cache : Yes
Make use of C2 pointers : No

Read offset correction : 48
Overread into Lead-In and Lead-Out : No
Fill up missing offset samples with silence : Yes
Delete leading and trailing silent blocks : No
Null samples used in CRC calculations : Yes
Used interface : Native Win32 interface for Win NT & 2000

Used output format : User Defined Encoder
Selected bitrate : 768 kBit/s
Quality : High
Add ID3 tag : No
Command line compressor : C:\Program Files\Exact Audio Copy\FLAC\FLAC.EXE
Additional command line options : -6 -V -T "ARTIST=%a" -T "TITLE=%t" -T "ALBUM=%g" -T "DATE=%y" -T "TRACKNUMBER=%n" -T "GENRE=%m" -T "COMMENT=%e" %s -o %d


TOC of the extracted CD

Track | Start | Length | Start sector | End sector
––––––––––––––––––––––––––––-
1 | 0:00.00 | 5:46.23 | 0 | 25972
2 | 5:46.23 | 7:19.52 | 25973 | 58949
3 | 13:06.00 | 7:27.04 | 58950 | 92478
4 | 20:33.04 | 7:09.68 | 92479 | 124721
5 | 27:42.72 | 7:38.37 | 124722 | 159108
6 | 35:21.34 | 5:36.40 | 159109 | 184348
7 | 40:57.74 | 7:17.31 | 184349 | 217154
8 | 48:15.30 | 5:12.69 | 217155 | 240623
9 | 53:28.24 | 7:37.65 | 240624 | 274963
10 | 61:06.14 | 4:39.57 | 274964 | 295945


Range status and errors

Selected range

Filename J:\eMusic\Rip\Matthias Frey - Trails and Traces.wav

Peak level 99.4 %
Range quality 99.9 %
Test CRC E4C800DF
Copy CRC E4C800DF
Copy OK

No errors occurred


AccurateRip summary

Track 1 accurately ripped (confidence 3) [18B0739C]
Track 2 accurately ripped (confidence 3) [EBED92F9]
Track 3 accurately ripped (confidence 3) [2DA23C4D]
Track 4 accurately ripped (confidence 3) [074678FE]
Track 5 accurately ripped (confidence 3) [F407588B]
Track 6 accurately ripped (confidence 3) [F55F6AA7]
Track 7 accurately ripped (confidence 3) [2EF530B4]
Track 8 accurately ripped (confidence 3) [F1E4F13C]
Track 9 accurately ripped (confidence 3) [BEC01C0B]
Track 10 accurately ripped (confidence 3) [368B950B]

All tracks accurately ripped

End of status report


The German pianist has spent a lot of time listening to fusionists like Return to Forever, Weather Report, Pat Metheny and the Yellowjackets (as well as Chick Corea's acoustic groups and the acoustic pianism of Keith Jarrett). It isn't that Frey and sidemen Büdi Siebert (sax, flute, clarinet), Ramesh Shotham (who plays traditional South Indian percussion instruments), Christoph Haberer (drums) and Wolfgang Tiepold (cello) inundate the listener with rock or funk rhythms. Frey doesn't hide his affection for Weather Report, Metheny or Corea's Return to Forever any more than he hides his affection for Jarrett. While it's important to know who has influenced the acoustic pianist's charming, reflective compositions, one should realize that Frey is his own person and that ultimately, he sounds like no one but himself.- by Alex henderson, AMG

Tracks:
1. Heart Times 5:46
2. Two Eagels 7:19
3. Farewell Curraghduff 7:27
4. Feed The Monkey 7:09
5. Sun In The East 7:38
6. Catch The Horses 5:36
7. Pick Up The Trails 7:17
8. Crossing The Bridge 5:12
9. Rain In The Gardens Of Love 7:37
10. Dance Under The Crimson Moon 4:38
All compositions - by Matthias Frey

Personnel:
Matthias Frey (Piano, Prepared Piano and Keyboards)
Ramesh Shotham (Ghatam, Kanjira, Dholak, Morsing, Drums and Shaker)
Büdi Siebert (Saxophone, Clarinet and Flute) - 1,3,5,6,9,10
Chris Jones (Acoustic Guitar) - 1,3,4,10
Thomas Kagerman (Violin and Vocals) - 2-6,10
Cristoph Haberer (Drums and Percussions) - 1,3,5-9
Wolfgang Tiepold (Cello) - 2,4,8
Laura Ramey (Vocals) - 3,4,6,7,10
Martin O'Sullivan (Thin Whistle) - 3
Nisse Holsten (Flute) - 3,4,7,10
Ferdinad Försch (Percussion and Bass) - 4,7

reupload: August 25, 2010

FileServe:
Part 1 - Part 2 - Part 3
Hotfile:
Part 1 - Part 2 - Part 3
Rapidshare:
Part 1 - Part 2 - Part 3
pw: into