Subcategories

The Maya Beiser / Steven Schick Project - Caught by the Sky with Wire (2000) {OODiscs oo67}

Posted By: ruskaval
The Maya Beiser / Steven Schick Project - Caught by the Sky with Wire (2000) {OODiscs oo67}

The Maya Beiser / Steven Schick Project - Caught by the Sky with Wire (2000) {OODiscs oo67}
EAC rip (secure mode) | FLAC (tracks)+CUE+LOG -> 296 Mb | MP3 @320 -> 163 Mb
Full Artwork @ 300 dpi (jpg) -> 12 Mb | 5% repair rar
© 2000 OODiscs | oo67
Classical / Modern Classical / Sound Art / Chamber Music / Cello / Percussion

This talented multi-instrumentalist duo play originally commissioned works influenced by several world music styles. Gada Vina African is a charming and melodious piece for marimba, shaker, a plucked string, and a violin. Nick Didkovsky's suite, Caught by the Sky with Wire, opens with The Dance, featuring angular rhythms and an emotive violin solo with sighs and shakes. Hugging Himself for Days and Never Getting An Answer is a mournful, low string solo played rubato. Those With the Longest Shadows is a brief interlude for a gamelan instrument.

Tied Together With This is a rhythmic treat, with scratchy bowed string, quiro, and bass drum. Again, the Little Girl and Her Bird is a brief interlude with a touching violin melody. His Heart, Exploded with Wire is a high-spirited dance for marimba, violin, and drum set. In a Year, When She Can Speak Again occurs in slow thoughtful tones for gamelan instrument and violin harmonics. Chinary Ung's Grand Alap (A Window in the Sky) is like the slow introductory section of a raga but with sudden stabs and exclamations in the Cambodian Khmer language. A drone underscores extensive passages for marimba, vibraphone, violin, and voices. Northstar Boogaloo, by George Lewis, opens with a basketball referee's whistle, and percussion improvisations underlie voices: "The rhythm takes me back to when I was black and proud … talking 'bout yo mama … pick up the dance of five brothers skateboarding the court … now jump forward through history's dice game .. poets were a-dribble, a drummer's paradiddle." Crowds cheer. Franghis Ali-Zade's Habil-Sajahy ("in the style of Habil") employs the cello and percussion to imitate Azerbaijani instruments, like the kemanche (a kind of violin), and two kinds of lute. The music is meditative, with a touch of sorrow and prayerfulness.
The Maya Beiser / Steven Schick Project - Caught by the Sky with Wire (2000) {OODiscs oo67}

The Maya Beiser / Steven Schick Project - Caught by the Sky with Wire (2000) {OODiscs oo67}


Personnel
Maya Beiser, cello
Steven Schick, percussion

Tracks
01 - Gaga Yida African
02 - Caught by the Sky with Wire- I. The Dance
03 - Caught by the Sky with Wire- II. Hugging Himself for Days
04 - Caught by the Sky with Wire- III. Those with the Longest Shadows
05 - Caught by the Sky with Wire- IV. Tied Together with This
06 - Caught by the Sky with Wire- V. Again, the Little Girl and her Bird
07 - Caught by the Sky with Wire- VI. His Heart, Exploded with Wire
08 - Caught by the Sky with Wire- VII. In a Year, When She Can Speak Again
09 - Grand Alap (A Window in the Sky)
10 - Northstar Boogaloo
11 - Habil-Sajahy

Exact Audio Copy V1.3 from 2. September 2016

EAC extraction logfile from 22. October 2019, 17:23

The Maya Beiser/Steven Schick Project / Caught by the Sky with Wire

Used drive : HL-DT-STDVDRAM GP65NB60 Adapter: 1 ID: 0

Read mode : Secure
Utilize accurate stream : Yes
Defeat audio cache : Yes
Make use of C2 pointers : No

Read offset correction : 6
Overread into Lead-In and Lead-Out : No
Fill up missing offset samples with silence : Yes
Delete leading and trailing silent blocks : No
Null samples used in CRC calculations : Yes
Used interface : Native Win32 interface for Win NT & 2000
Gap handling : Appended to previous track

Used output format : User Defined Encoder
Selected bitrate : 1024 kBit/s
Quality : High
Add ID3 tag : No
Command line compressor : C:\Program Files (x86)\Exact Audio Copy\Flac\flac.exe
Additional command line options : -8 -V -T "ARTIST=%artist%" -T "TITLE=%title%" -T "ALBUM=%albumtitle%" -T "DATE=%year%" -T "TRACKNUMBER=%tracknr%" -T "GENRE=%genre%" -T "PERFORMER=%albuminterpret%" -T "COMPOSER=%composer%" %haslyrics%–tag-from-file=LYRICS="%lyricsfile%"%haslyrics% -T "ALBUMARTIST=%albumartist%" -T "DISCNUMBER=%cdnumber%" -T "TOTALDISCS=%totalcds%" -T "TOTALTRACKS=%numtracks%" -T "COMMENT=%comment%" %source% -o %dest%


TOC of the extracted CD

Track | Start | Length | Start sector | End sector
––––––––––––––––––––––––––––-
1 | 0:00.00 | 3:56.35 | 0 | 17734
2 | 3:56.35 | 4:16.47 | 17735 | 36981
3 | 8:13.07 | 1:57.28 | 36982 | 45784
4 | 10:10.35 | 0:22.02 | 45785 | 47436
5 | 10:32.37 | 1:13.05 | 47437 | 52916
6 | 11:45.42 | 0:20.58 | 52917 | 54474
7 | 12:06.25 | 2:09.65 | 54475 | 64214
8 | 14:16.15 | 3:20.67 | 64215 | 79281
9 | 17:37.07 | 18:08.70 | 79282 | 160951
10 | 35:46.02 | 15:05.00 | 160952 | 228826
11 | 50:51.02 | 17:30.33 | 228827 | 307609


Track 1

Filename C:\Users\Setup\Music\EAC Rips\The Maya Beiser Steven Schick Project - Caught by the Sky with Wire (2000) [CD FLAC] {oo67}\01 - Gaga Yida African.wav

Pre-gap length 0:00:02.00

Peak level 38.0 %
Extraction speed 2.7 X
Track quality 100.0 %
Test CRC 03A210CE
Copy CRC 03A210CE
Track not present in AccurateRip database
Copy OK

Track 2

Filename C:\Users\Setup\Music\EAC Rips\The Maya Beiser Steven Schick Project - Caught by the Sky with Wire (2000) [CD FLAC] {oo67}\02 - Caught by the Sky with Wire- I. The Dance.wav

Pre-gap length 0:00:05.17

Peak level 93.6 %
Extraction speed 2.5 X
Track quality 99.9 %
Test CRC 119E4920
Copy CRC 119E4920
Track not present in AccurateRip database
Copy OK

Track 3

Filename C:\Users\Setup\Music\EAC Rips\The Maya Beiser Steven Schick Project - Caught by the Sky with Wire (2000) [CD FLAC] {oo67}\03 - Caught by the Sky with Wire- II. Hugging Himself for Days and Never Getting an Answer.wav

Peak level 32.4 %
Extraction speed 2.7 X
Track quality 100.0 %
Test CRC D4F26C43
Copy CRC D4F26C43
Track not present in AccurateRip database
Copy OK

Track 4

Filename C:\Users\Setup\Music\EAC Rips\The Maya Beiser Steven Schick Project - Caught by the Sky with Wire (2000) [CD FLAC] {oo67}\04 - Caught by the Sky with Wire- III. Those with the Longest Shadows.wav

Peak level 12.4 %
Extraction speed 1.3 X
Track quality 100.0 %
Test CRC 1C75CA19
Copy CRC 1C75CA19
Track not present in AccurateRip database
Copy OK

Track 5

Filename C:\Users\Setup\Music\EAC Rips\The Maya Beiser Steven Schick Project - Caught by the Sky with Wire (2000) [CD FLAC] {oo67}\05 - Caught by the Sky with Wire- IV. Tied Together with This.wav

Peak level 100.0 %
Extraction speed 2.5 X
Track quality 100.0 %
Test CRC AADEE906
Copy CRC AADEE906
Track not present in AccurateRip database
Copy OK

Track 6

Filename C:\Users\Setup\Music\EAC Rips\The Maya Beiser Steven Schick Project - Caught by the Sky with Wire (2000) [CD FLAC] {oo67}\06 - Caught by the Sky with Wire- V. Again, the Little Girl and her Bird.wav

Peak level 13.6 %
Extraction speed 1.3 X
Track quality 100.0 %
Test CRC 78F7A3A3
Copy CRC 78F7A3A3
Track not present in AccurateRip database
Copy OK

Track 7

Filename C:\Users\Setup\Music\EAC Rips\The Maya Beiser Steven Schick Project - Caught by the Sky with Wire (2000) [CD FLAC] {oo67}\07 - Caught by the Sky with Wire- VI. His Heart, Exploded with Wire.wav

Peak level 67.8 %
Extraction speed 3.0 X
Track quality 100.0 %
Test CRC 0171BC4B
Copy CRC 0171BC4B
Track not present in AccurateRip database
Copy OK

Track 8

Filename C:\Users\Setup\Music\EAC Rips\The Maya Beiser Steven Schick Project - Caught by the Sky with Wire (2000) [CD FLAC] {oo67}\08 - Caught by the Sky with Wire- VII. In a Year, When She Can Speak Again.wav

Peak level 16.8 %
Extraction speed 3.3 X
Track quality 100.0 %
Test CRC CD65F83F
Copy CRC CD65F83F
Track not present in AccurateRip database
Copy OK

Track 9

Filename C:\Users\Setup\Music\EAC Rips\The Maya Beiser Steven Schick Project - Caught by the Sky with Wire (2000) [CD FLAC] {oo67}\09 - Grand Alap (A Window in the Sky).wav

Pre-gap length 0:00:03.69

Peak level 98.8 %
Extraction speed 4.2 X
Track quality 99.9 %
Test CRC E501478C
Copy CRC E501478C
Track not present in AccurateRip database
Copy OK

Track 10

Filename C:\Users\Setup\Music\EAC Rips\The Maya Beiser Steven Schick Project - Caught by the Sky with Wire (2000) [CD FLAC] {oo67}\10 - Northstar Boogaloo.wav

Pre-gap length 0:00:04.00

Peak level 98.4 %
Extraction speed 4.8 X
Track quality 99.9 %
Test CRC 2D1577E9
Copy CRC 2D1577E9
Track not present in AccurateRip database
Copy OK

Track 11

Filename C:\Users\Setup\Music\EAC Rips\The Maya Beiser Steven Schick Project - Caught by the Sky with Wire (2000) [CD FLAC] {oo67}\11 - Habil-Sajahy.wav

Pre-gap length 0:00:04.26

Peak level 96.5 %
Extraction speed 5.5 X
Track quality 99.9 %
Test CRC F6DBF9FB
Copy CRC F6DBF9FB
Track not present in AccurateRip database
Copy OK


None of the tracks are present in the AccurateRip database

No errors occurred

End of status report

–– CUETools DB Plugin V2.1.6

[CTDB TOCID: cPZucDtJlv_xijnHibcmtT43L38-] found
Submit result: cPZucDtJlv_xijnHibcmtT43L38- has been confirmed
Track | CTDB Status
1 | (2/2) Accurately ripped
2 | (2/2) Accurately ripped
3 | (2/2) Accurately ripped
4 | (2/2) Accurately ripped
5 | (2/2) Accurately ripped
6 | (2/2) Accurately ripped
7 | (2/2) Accurately ripped
8 | (2/2) Accurately ripped
9 | (2/2) Accurately ripped
10 | (2/2) Accurately ripped
11 | (2/2) Accurately ripped


==== Log checksum 61A7CD62F75FF22237C097D42A2674F2FAD40C7C209F42E24EE2F0ED757EDE6C ====


The Maya Beiser / Steven Schick Project - Caught by the Sky with Wire (2000) {OODiscs oo67}


see more OODiscs…

more OODiscs on the way…


===