Subcategories

Paul McCartney & Wings - Band On The Run (1973) [3CD+DVD] (2010 Remaster Deluxe Edition, Archive Collection) {Concord/MPL}

Posted By: ruskaval
Paul McCartney & Wings - Band On The Run (1973) [3CD+DVD] (2010 Remaster Deluxe Edition, Archive Collection) {Concord/MPL}

Paul McCartney & Wings - Band On The Run (1973) [3CD+DVD] (2010 Remaster Deluxe Edition, Archive Collection) {Concord/MPL}
EAC rip (secure mode) | FLAC (image)+CUE+LOG -> 801 Mb | MP3 @320 -> 303 Mb
DVD5 -> 6.8 Gb | All Regions | NTSC 16:9 | English (LinearPCM, 2 ch) | ~ 92 m | ISO Image
Full Artwork @ 300 dpi (jpg) -> 551 Mb | 5% repair rar
© 2010 Concord / MPL / Hear Music | HRV-32565-00
Rock / Soft Rock / Contemporary Pop

Digitally remastered and expanded four disc (three CDs + DVD) edition of this 1973 album from the Rock 'n' Roll legend including a bonus CD containing nine rare tracks, a bonus documentary CD and a bonus DVD that features rare footage, music videos and behind the scenes features and the One Hand Clapping documentary. Band On The Run was released three short years after the Beatles' split and would become one of the biggest selling albums of Sir Paul's entire solo career. Collectors will be especially thrilled by the 4 disc (3CD, 1 DVD) deluxe edition which adds an extraordinary 120-page hard bound book containing many unseen and unpublished photos by Linda McCartney and Clive Arrowsmith, album and single artwork, a full history of the album complete with a new interview with Paul and expanded track by track information for all four discs.
Paul McCartney & Wings - Band On The Run (1973) [3CD+DVD] (2010 Remaster Deluxe Edition, Archive Collection) {Concord/MPL}

Paul McCartney & Wings - Band On The Run (1973) [3CD+DVD] (2010 Remaster Deluxe Edition, Archive Collection) {Concord/MPL}

The musical achievement of Band on the Run is nearly matched by the amazing story behind its creation. Intrigued with recording abroad in the summer of 1973, McCartney searched for a list of studios around the world. Spotting one in the remote location of Lagos, Nigeria, he became enthralled with the idea of recording in Africa. Days before departure, lead guitarist Henry McCullough and drummer Denny Seiwell quit the band leaving the entire project to the three core members, Paul, his wife Linda McCartney and band-member Denny Laine (along with recording engineer Geoff Emerick). Recorded in August and September of 1973 (with further work done at AIR Studios in London in October 1973), they persevered through a tumultuous, yet creatively invigorating 2 month recording process battling difficult studio conditions, oppressive heat and a dangerous mugging at knife point. The thieves made off with the demo tapes (among other valuables), forcing the band to record the entire album from memory.

Band on the Run triumphed both critically and commercially. The album topped the US album chart 3 separate times, won a Grammy and went on to sell more than 7 million copies. Upon the release of Band on the Run, then Rolling Stone reviewer Jon Landau famously gushed, “The finest record yet released by any of the four musicians who were once called The Beatles.”
Paul McCartney & Wings - Band On The Run (1973) [3CD+DVD] (2010 Remaster Deluxe Edition, Archive Collection) {Concord/MPL}

Paul McCartney & Wings - Band On The Run (1973) [3CD+DVD] (2010 Remaster Deluxe Edition, Archive Collection) {Concord/MPL}

Paul is currently playing five songs from the album on his ‘Up and Coming Tour’. Live favorites over the last 8 years of touring have included “Jet”, “Band on the Run” and “Let Me Roll It”. In 2008 when Paul played a free outdoor show to over 500,000 people in Kiev, a Ukrainian poll listed “Mrs Vandebilt” as their all time favorite Paul McCartney song. It’s been included in the set ever since. At the start of this tour Paul added “Nineteen Hundred and Eighty Five” to the set.
Band on the Run marks the first release from the Paul McCartney Archive Collection, an ambitious reissue program that encompasses 40 years of cherished, classic material from the most successful songwriter and recording artist in music history. It’s also the initial physical release of the recently announced agreement between McCartney’s MPL and Concord Music Group to globally market and distribute McCartney’s venerated solo and Wings catalog.
Paul McCartney & Wings - Band On The Run (1973) [3CD+DVD] (2010 Remaster Deluxe Edition, Archive Collection) {Concord/MPL}

Paul McCartney & Wings - Band On The Run (1973) [3CD+DVD] (2010 Remaster Deluxe Edition, Archive Collection) {Concord/MPL}


Video INFO

More McCartney Deluxe Edition
Paul McCartney - McCartney (1970) [2CD+DVD] (2011 Remaster Deluxe Edition, Archive Collection) {Concord/MPL}
Paul McCartney - McCartney II (1980) [3CD+DVD] (2011 Remaster Deluxe Edition, Archive Collection) {Concord/MPL}


tracklist:
CD1 - Remastered Album

01. Band On The Run
02. Jet
03. Bluebird
04. Mrs. Vandebilt
05. Let Me Roll It
06. Mamunia
07. No Words
08. Picasso's Last Words (Drink To Me)
09. Nineteen Hundred And Eighty Five

CD2 - Bonus Audio Tracks
01. Helen Wheels
02. Country Dreamer
03. Bluebird (from One Hand Clapping)
04. Jet (from One Hand Clapping)
05. Let Me Roll It (from One Hand Clapping)
06. Band On The Run (from One Hand Clapping)
07. Nineteen Hundred And Eighty Five (from One Hand Clapping)
08. Country Dreamer (from One Hand Clapping)
09. Zoo Gang

CD3 - Audio Documentary
01. Paul McCartney - Band On The Run (Nicely Toasted Mix)
02. Band On The Run (Original) (Background)
03. Band On The Run (Barn Rehearsal - 21st July 1989)
04. Paul McCartney - Mamunia (Original) (Background)
05. Bluebird (Live - Version - Australia 1975)
06. Bluebird (Original)
07. Paul McCartney - No Words (Original) (Background)
08. No Words (Original)
09. Jet (Original From Picasso's Last Words) (Background)
10. Jet (Berlin Soundcheck - 3rd September 1993)
11. Paul McCartney - Clive Arrowsmith
12. Nineteen Hundred And Eighty Five (Original) (Background)
13. Mrs Vandeblit (Original) (Background)
14. Let Me Roll It (Cardington Rehearsal - 5th February 1993)
15. Paul McCartney - Mrs Vandeblit (Background)
16. Helen Wheels (Crazed)
17. Band On The Run (Strum Bit)
18. Picasso's Last Words (Original) (Background)
19. Picasso's Last Words (Drink To Me) (Acoustic Version)
20. Band On The Run (Nicely Toasted Mix)
21. Band On The Run (Northern Comic Version)

DVD
01. Band on the Run Music Video
02. Mamunia Music Video
03. Album Promo (Featuring Band on the Run, Mrs Vandebilt, Nineteen Hundred and Eighty Five, Bluebird)
04. Helen Wheels Music Video
05. Wings In Lagos
06. Osterley Park
07. One Hand Clapping
*Jet
*Soily
*C Moon
*Little Woman Love
*Maybe I'm Amazed
*My Love
*Bluebird
*Let's Love
*All Of You
*I'll Give You A Ring
*Band on the Run
*Live and Let Die
*Nineteen Hundred and Eighty Five
*Baby Face

Exact Audio Copy V1.0 beta 3 from 29. August 2011

EAC extraction logfile from 17. December 2012, 13:36

Paul McCartney & Wings / Band On The Run (2010 Remaster) CD1

Used drive : ATAPI iHAS124 B Adapter: 2 ID: 0

Read mode : Secure
Utilize accurate stream : Yes
Defeat audio cache : Yes
Make use of C2 pointers : No

Read offset correction : 6
Overread into Lead-In and Lead-Out : No
Fill up missing offset samples with silence : Yes
Delete leading and trailing silent blocks : No
Null samples used in CRC calculations : Yes
Used interface : Native Win32 interface for Win NT & 2000

Used output format : User Defined Encoder
Selected bitrate : 1024 kBit/s
Quality : High
Add ID3 tag : No
Command line compressor : C:\Program Files (x86)\Exact Audio Copy\FLAC\FLAC.EXE
Additional command line options : -8 -V -T "ARTIST=%artist%" -T "TITLE=%title%" -T "ALBUM=%albumtitle%" -T "DATE=%year%" -T "TRACKNUMBER=%tracknr%" -T "GENRE=%genre%" -T "PERFORMER=%albuminterpret%" -T "COMPOSER=%composer%" %haslyrics%–tag-from-file=LYRICS="%lyricsfile%"%haslyrics% -T "ALBUMARTIST=%albumartist%" -T "DISCNUMBER=%cdnumber%" -T "TOTALDISCS=%totalcds%" -T "TOTALTRACKS=%numtracks%" -T "COMMENT=%comment%" %source% -o %dest%


TOC of the extracted CD

Track | Start | Length | Start sector | End sector
––––––––––––––––––––––––––––-
1 | 0:00.00 | 5:13.65 | 0 | 23539
2 | 5:13.65 | 4:09.02 | 23540 | 42216
3 | 9:22.67 | 3:25.25 | 42217 | 57616
4 | 12:48.17 | 4:41.60 | 57617 | 78751
5 | 17:30.02 | 4:50.28 | 78752 | 100529
6 | 22:20.30 | 4:50.67 | 100530 | 122346
7 | 27:11.22 | 2:36.18 | 122347 | 134064
8 | 29:47.40 | 5:49.32 | 134065 | 160271
9 | 35:36.72 | 5:31.64 | 160272 | 185160


Range status and errors

Selected range

Filename G:\CD\Band On The Run CD1.wav

Peak level 98.3 %
Extraction speed 5.9 X
Range quality 100.0 %
Test CRC 383FBDE6
Copy CRC 383FBDE6
Copy OK

No errors occurred


AccurateRip summary

Track 1 accurately ripped (confidence 33) [A172C281] (AR v2)
Track 2 accurately ripped (confidence 33) [B890E9F2] (AR v2)
Track 3 accurately ripped (confidence 33) [BED4638B] (AR v2)
Track 4 accurately ripped (confidence 33) [5B3BB4AC] (AR v2)
Track 5 accurately ripped (confidence 33) [8A7F26B1] (AR v2)
Track 6 accurately ripped (confidence 31) [187D37AF] (AR v2)
Track 7 accurately ripped (confidence 33) [03341E59] (AR v2)
Track 8 accurately ripped (confidence 32) [E7BBDCC7] (AR v2)
Track 9 accurately ripped (confidence 31) [77F4E761] (AR v2)

All tracks accurately ripped

End of status report

==== Log checksum 7C95EE3DA1EA511DEAE1337C1C2F6F9EB4C1CFA71774A81C393EFDB69BB29013 ====

Exact Audio Copy V1.0 beta 3 from 29. August 2011

EAC extraction logfile from 17. December 2012, 14:09

Paul McCartney & Wings / Band On The Run (2010 Remaster) CD2

Used drive : ATAPI iHAS124 B Adapter: 2 ID: 0

Read mode : Secure
Utilize accurate stream : Yes
Defeat audio cache : Yes
Make use of C2 pointers : No

Read offset correction : 6
Overread into Lead-In and Lead-Out : No
Fill up missing offset samples with silence : Yes
Delete leading and trailing silent blocks : No
Null samples used in CRC calculations : Yes
Used interface : Native Win32 interface for Win NT & 2000

Used output format : User Defined Encoder
Selected bitrate : 1024 kBit/s
Quality : High
Add ID3 tag : No
Command line compressor : C:\Program Files (x86)\Exact Audio Copy\FLAC\FLAC.EXE
Additional command line options : -8 -V -T "ARTIST=%artist%" -T "TITLE=%title%" -T "ALBUM=%albumtitle%" -T "DATE=%year%" -T "TRACKNUMBER=%tracknr%" -T "GENRE=%genre%" -T "PERFORMER=%albuminterpret%" -T "COMPOSER=%composer%" %haslyrics%–tag-from-file=LYRICS="%lyricsfile%"%haslyrics% -T "ALBUMARTIST=%albumartist%" -T "DISCNUMBER=%cdnumber%" -T "TOTALDISCS=%totalcds%" -T "TOTALTRACKS=%numtracks%" -T "COMMENT=%comment%" %source% -o %dest%


TOC of the extracted CD

Track | Start | Length | Start sector | End sector
––––––––––––––––––––––––––––-
1 | 0:00.00 | 3:47.39 | 0 | 17063
2 | 3:47.39 | 3:09.52 | 17064 | 31290
3 | 6:57.16 | 3:28.64 | 31291 | 46954
4 | 10:26.05 | 3:57.53 | 46955 | 64782
5 | 14:23.58 | 4:25.34 | 64783 | 84691
6 | 18:49.17 | 5:14.56 | 84692 | 108297
7 | 24:03.73 | 5:59.71 | 108298 | 135293
8 | 30:03.69 | 2:16.66 | 135294 | 145559
9 | 32:20.60 | 2:01.34 | 145560 | 154668


Range status and errors

Selected range

Filename G:\CD\Band On The Run CD2.wav

Peak level 97.7 %
Extraction speed 3.0 X
Range quality 100.0 %
Test CRC CF6D6DB6
Copy CRC CF6D6DB6
Copy OK

No errors occurred


AccurateRip summary

Track 1 accurately ripped (confidence 25) [FEA0D05B] (AR v2)
Track 2 accurately ripped (confidence 25) [2E456A93] (AR v2)
Track 3 accurately ripped (confidence 26) [7E1C1183] (AR v2)
Track 4 accurately ripped (confidence 26) [233FE820] (AR v2)
Track 5 accurately ripped (confidence 26) [F2AD43B6] (AR v2)
Track 6 accurately ripped (confidence 26) [51D22267] (AR v2)
Track 7 accurately ripped (confidence 26) [9E3380FA] (AR v2)
Track 8 accurately ripped (confidence 26) [F2D2FEAD] (AR v2)
Track 9 accurately ripped (confidence 26) [65536A72] (AR v2)

All tracks accurately ripped

End of status report

==== Log checksum 4AE3D15DE76A0ABE377A35B40C42E648DE9920DF885FD30658A5F90423739283 ====

Exact Audio Copy V1.0 beta 3 from 29. August 2011

EAC extraction logfile from 17. December 2012, 14:45

Paul McCartney & Wings / Band On The Run (2010 Remaster) CD3

Used drive : ATAPI iHAS124 B Adapter: 2 ID: 0

Read mode : Secure
Utilize accurate stream : Yes
Defeat audio cache : Yes
Make use of C2 pointers : No

Read offset correction : 6
Overread into Lead-In and Lead-Out : No
Fill up missing offset samples with silence : Yes
Delete leading and trailing silent blocks : No
Null samples used in CRC calculations : Yes
Used interface : Native Win32 interface for Win NT & 2000

Used output format : User Defined Encoder
Selected bitrate : 1024 kBit/s
Quality : High
Add ID3 tag : No
Command line compressor : C:\Program Files (x86)\Exact Audio Copy\FLAC\FLAC.EXE
Additional command line options : -8 -V -T "ARTIST=%artist%" -T "TITLE=%title%" -T "ALBUM=%albumtitle%" -T "DATE=%year%" -T "TRACKNUMBER=%tracknr%" -T "GENRE=%genre%" -T "PERFORMER=%albuminterpret%" -T "COMPOSER=%composer%" %haslyrics%–tag-from-file=LYRICS="%lyricsfile%"%haslyrics% -T "ALBUMARTIST=%albumartist%" -T "DISCNUMBER=%cdnumber%" -T "TOTALDISCS=%totalcds%" -T "TOTALTRACKS=%numtracks%" -T "COMMENT=%comment%" %source% -o %dest%


TOC of the extracted CD

Track | Start | Length | Start sector | End sector
––––––––––––––––––––––––––––-
1 | 0:00.00 | 1:11.53 | 0 | 5377
2 | 1:11.53 | 2:16.59 | 5378 | 15636
3 | 3:28.37 | 4:59.24 | 15637 | 38085
4 | 8:27.61 | 4:22.41 | 38086 | 57776
5 | 12:50.27 | 0:54.52 | 57777 | 61878
6 | 13:45.04 | 0:23.01 | 61879 | 63604
7 | 14:08.05 | 1:24.35 | 63605 | 69939
8 | 15:32.40 | 1:47.00 | 69940 | 77964
9 | 17:19.40 | 2:55.13 | 77965 | 91102
10 | 20:14.53 | 3:51.64 | 91103 | 108491
11 | 24:06.42 | 1:44.14 | 108492 | 116305
12 | 25:50.56 | 3:24.16 | 116306 | 131621
13 | 29:14.72 | 2:10.37 | 131622 | 141408
14 | 31:25.34 | 3:51.72 | 141409 | 158805
15 | 35:17.31 | 2:25.40 | 158806 | 169720
16 | 37:42.71 | 5:32.26 | 169721 | 194646
17 | 43:15.22 | 1:00.61 | 194647 | 199207
18 | 44:16.08 | 4:21.62 | 199208 | 218844
19 | 48:37.70 | 1:10.65 | 218845 | 224159
20 | 49:48.60 | 0:41.45 | 224160 | 227279
21 | 50:30.30 | 0:38.57 | 227280 | 230186


Range status and errors

Selected range

Filename G:\CD\Band On The Run CD3.wav

Peak level 98.8 %
Extraction speed 3.3 X
Range quality 100.0 %
Test CRC A2774D38
Copy CRC A2774D38
Copy OK

No errors occurred


AccurateRip summary

Track 1 accurately ripped (confidence 3) [796BDA97] (AR v1)
Track 2 accurately ripped (confidence 3) [D9B6351D] (AR v1)
Track 3 accurately ripped (confidence 3) [6F8DFCA1] (AR v1)
Track 4 accurately ripped (confidence 3) [2DA5CA45] (AR v1)
Track 5 accurately ripped (confidence 3) [F3AA1258] (AR v1)
Track 6 accurately ripped (confidence 3) [8E444587] (AR v1)
Track 7 accurately ripped (confidence 3) [ECE99326] (AR v1)
Track 8 accurately ripped (confidence 3) [48A00411] (AR v1)
Track 9 accurately ripped (confidence 3) [57424B15] (AR v1)
Track 10 accurately ripped (confidence 3) [0C7357AB] (AR v1)
Track 11 accurately ripped (confidence 3) [27C5FBEB] (AR v1)
Track 12 accurately ripped (confidence 3) [B959F8CA] (AR v1)
Track 13 accurately ripped (confidence 3) [1E9D8B7F] (AR v1)
Track 14 accurately ripped (confidence 3) [966104F0] (AR v1)
Track 15 accurately ripped (confidence 3) [AC94D5AB] (AR v1)
Track 16 accurately ripped (confidence 3) [CDA66BF9] (AR v1)
Track 17 accurately ripped (confidence 3) [148E7631] (AR v1)
Track 18 accurately ripped (confidence 3) [2D155E30] (AR v1)
Track 19 accurately ripped (confidence 3) [DAB4C484] (AR v1)
Track 20 accurately ripped (confidence 3) [9C80FE2D] (AR v1)
Track 21 accurately ripped (confidence 3) [F3EBD991] (AR v1)

All tracks accurately ripped

End of status report

==== Log checksum DE7D310045FF5C49D600A738F396688580C178B9827FE68D1BDEB5F6C52B44D6 ====


Paul McCartney & Wings - Band On The Run (1973) [3CD+DVD] (2010 Remaster Deluxe Edition, Archive Collection) {Concord/MPL}

Paul McCartney & Wings - Band On The Run (1973) [3CD+DVD] (2010 Remaster Deluxe Edition, Archive Collection) {Concord/MPL}

Paul McCartney & Wings - Band On The Run (1973) [3CD+DVD] (2010 Remaster Deluxe Edition, Archive Collection) {Concord/MPL}

Paul McCartney & Wings - Band On The Run (1973) [3CD+DVD] (2010 Remaster Deluxe Edition, Archive Collection) {Concord/MPL}

Paul McCartney & Wings - Band On The Run (1973) [3CD+DVD] (2010 Remaster Deluxe Edition, Archive Collection) {Concord/MPL}

Paul McCartney & Wings - Band On The Run (1973) [3CD+DVD] (2010 Remaster Deluxe Edition, Archive Collection) {Concord/MPL}

Paul McCartney & Wings - Band On The Run (1973) [3CD+DVD] (2010 Remaster Deluxe Edition, Archive Collection) {Concord/MPL}

Paul McCartney & Wings - Band On The Run (1973) [3CD+DVD] (2010 Remaster Deluxe Edition, Archive Collection) {Concord/MPL}

Paul McCartney & Wings - Band On The Run (1973) [3CD+DVD] (2010 Remaster Deluxe Edition, Archive Collection) {Concord/MPL}

Paul McCartney & Wings - Band On The Run (1973) [3CD+DVD] (2010 Remaster Deluxe Edition, Archive Collection) {Concord/MPL}


Special thanks to gerrV & asderas!