Subcategories

McCoy Tyner - Fly With The Wind (1976) {2008 Keepnews Collection}

Posted By: ruskaval
McCoy Tyner - Fly With The Wind (1976) {2008 Keepnews Collection}

McCoy Tyner - Fly With The Wind (1976) {2008 Keepnews Collection}
EAC rip (secure mode) | FLAC+CUE+LOG -> 312 Mb
Full Artwork @ 300 dpi (png) -> 63 Mb
© 2008 Concord / Milestone | 0888072305137 | 24-bit Remastering
Jazz / Post Bop / Piano


McCoy Tyner - Fly With The Wind (1976) {2008 Keepnews Collection}

Orrin’s commentary (from his new liner notes): “Although I had been very much impressed by his work with [John Coltrane], listening to [McCoy Tyner] in New York clubs in the years that followed made me aware of how remarkably he was developing. He was, and still remains, one of the most powerful pianists I have ever heard; many years ago having learned to merge that strength with a very personal form of lyricism—an unusual, unique combination. To me, it is this linking of power and beauty—in both the writing and the playing here—that distinguishes Fly With the Wind and makes it possibly my personal favorite among the 17 albums that I worked on with this extraordinary artist during our eight years together at Milestone.”
Personnel: McCoy Tyner on piano and various others, including flutist Hubert Laws, bassist Ron Carter, drummer Billy Cobham and others.

tracklist:
1. Fly With The Wind 8:30
2. Salvadore De Samba 12:13
3. Beyond The Sun 5:33
4. You Stepped Out Of A Dream 6:55
5. Rolem 5:43
6. Beyond The Sun [Alternate Take] 5:08
7. Rolem [Alternate Take] 5:15

McCoy Tyner - Fly With The Wind (1976) {2008 Keepnews Collection}

McCoy Tyner - Fly With The Wind (1976) {2008 Keepnews Collection}

Exact Audio Copy V0.99 prebeta 5 from 4. May 2009

EAC extraction logfile from 25. May 2010, 22:04

McCoy Tyner / Fly With The Wind

Used drive : TSSTcorpCD/DVDW TS-H552L Adapter: 3 ID: 0

Read mode : Secure
Utilize accurate stream : Yes
Defeat audio cache : Yes
Make use of C2 pointers : No

Read offset correction : 6
Overread into Lead-In and Lead-Out : No
Fill up missing offset samples with silence : Yes
Delete leading and trailing silent blocks : No
Null samples used in CRC calculations : Yes
Used interface : Native Win32 interface for Win NT & 2000
Gap handling : Appended to previous track

Used output format : User Defined Encoder
Selected bitrate : 1024 kBit/s
Quality : High
Add ID3 tag : No
Command line compressor : C:\Program Files\FLAC\flac.exe
Additional command line options : -6 -V -T "ARTIST=%a" -T "TITLE=%t" -T "ALBUM=%g" -T "DATE=%y" -T "TRACKNUMBER=%n" -T "GENRE=%m" -T "COMMENT=EAC FLAC -6" %s


TOC of the extracted CD

Track | Start | Length | Start sector | End sector
––––––––––––––––––––––––––––-
1 | 0:00.00 | 8:30.17 | 0 | 38266
2 | 8:30.17 | 12:13.65 | 38267 | 93306
3 | 20:44.07 | 5:33.57 | 93307 | 118338
4 | 26:17.64 | 6:55.22 | 118339 | 149485
5 | 33:13.11 | 5:43.45 | 149486 | 175255
6 | 38:56.56 | 5:08.69 | 175256 | 198424
7 | 44:05.50 | 5:15.64 | 198425 | 222113


Track 1

Filename C:\McCoy Tyner - Fly With The Wind (1976) {2008 Keepnews Collection}\01 - Fly with the Wind.wav

Pre-gap length 0:00:02.00

Peak level 97.6 %
Track quality 100.0 %
Test CRC 7824EA81
Copy CRC 7824EA81
Accurately ripped (confidence 5) [E5914DE7]
Copy OK

Track 2

Filename C:\McCoy Tyner - Fly With The Wind (1976) {2008 Keepnews Collection}\02 - Salvadore de Samba.wav

Peak level 88.4 %
Track quality 99.9 %
Test CRC 2F1734C4
Copy CRC 2F1734C4
Accurately ripped (confidence 5) [C665A2F1]
Copy OK

Track 3

Filename C:\McCoy Tyner - Fly With The Wind (1976) {2008 Keepnews Collection}\03 - Beyond the Sun.wav

Peak level 89.4 %
Track quality 100.0 %
Test CRC 21E53D77
Copy CRC 21E53D77
Accurately ripped (confidence 5) [E673A0C9]
Copy OK

Track 4

Filename C:\McCoy Tyner - Fly With The Wind (1976) {2008 Keepnews Collection}\04 - You Stepped Out of a Dream.wav

Peak level 80.9 %
Track quality 100.0 %
Test CRC BCDA378C
Copy CRC BCDA378C
Accurately ripped (confidence 5) [985DBC6C]
Copy OK

Track 5

Filename C:\McCoy Tyner - Fly With The Wind (1976) {2008 Keepnews Collection}\05 - Rolem.wav

Peak level 100.0 %
Track quality 100.0 %
Test CRC E444CD69
Copy CRC E444CD69
Accurately ripped (confidence 5) [F0D05DA0]
Copy OK

Track 6

Filename C:\McCoy Tyner - Fly With The Wind (1976) {2008 Keepnews Collection}\06 - Beyond the Sun (alternate).wav

Peak level 82.7 %
Track quality 100.0 %
Test CRC 6BAD46BB
Copy CRC 6BAD46BB
Accurately ripped (confidence 5) [741B1671]
Copy OK

Track 7

Filename C:\McCoy Tyner - Fly With The Wind (1976) {2008 Keepnews Collection}\07 - Rolem (alternate).wav

Peak level 97.6 %
Track quality 100.0 %
Test CRC A3F9EEF6
Copy CRC A3F9EEF6
Accurately ripped (confidence 5) [0D131007]
Copy OK


All tracks accurately ripped

No errors occurred

End of status report