Subcategories

Miles Davis - The Original Jacket Collection (2006) [30 Albums, 37 CDs] {DSD Japan Mini LP Analog Collection} (part 3of6)

Posted By: ruskaval
Miles Davis - The Original Jacket Collection (2006) [30 Albums, 37 CDs] {DSD Japan Mini LP Analog Collection} (part 3of6)

Miles Davis - The Original Jacket Collection (2006) [30 Albums, 37 CDs] {DSD Japan Mini LP Analog Collection} (part 3of6)
EAC rip (secure mode) | FLAC (tracks)+CUE+LOG -> 1.42 Gb | MP3 @320 -> 626 Mb | Artwork
© 2006 Sony Music Japan / Columbia | SICP 1211~15 | DSD | HQD High Quality Disc
Jazz / Hard Bop / Modal Music / Trumpet

Miles Davis' concert of February 12, 1964, was originally divided into two LPs, with all of the ballads put on My Funny Valentine. These five lengthy tracks (which include "All of You," "Stella by Starlight," "All Blues," "I Thought About You," and the title cut) put the emphasis on the lyricism of Davis, along with some strong statements from tenor saxophonist George Coleman and freer moments from the young rhythm section of pianist Herbie Hancock, bassist Ron Carter, and drummer Tony Williams.
Miles Davis - The Original Jacket Collection (2006) [30 Albums, 37 CDs] {DSD Japan Mini LP Analog Collection} (part 3of6)

Miles Davis - The Original Jacket Collection (2006) [30 Albums, 37 CDs] {DSD Japan Mini LP Analog Collection} (part 3of6)


––––

Miles Davis - The Original Jacket Collection (2006) [30 Albums, 37 CDs] {DSD Japan Mini LP Analog Collection} (part 3of6)

Miles Davis - My Funny Valentine. Miles Davis In Concert (1964) {2006 DSD Japan Mini LP Edition}
EAC rip (secure mode) | FLAC (tracks)+CUE+LOG -> 362 Mb | MP3 @320 -> 150 Mb | Artwork
© 2006 Sony Music Japan / Columbia | SICP 1211 | DSD | HQD High Quality Disc

One of the finest live albums in the history of jazz, My Funny Valentine presents the Miles Davis Quintet live at the Lincoln Centre's Philharmonic Hall in 1964. Surrounded by the vibrant and youthful rhythm section of Herbie Hancock (piano), Ron Carter (bass) and Tony Williams (drums), Davis was enjoying a strong new surge of creativity, and played with a stunning level of invention and passion throughout. The resonance of the long title track - one of those flawless performances that happens only very occasionally - dominates the record. Front-line partner George Coleman (tenor saxophone) chose a good evening to play some of the most beautiful solos of his life.

Personnel: Miles Davis (trumpet); George Coleman (tenor saxophone); Herbie Hancock (piano); Ron Carter (bass); Tony Williams (drums).

tracklist:
01. My Funny Valentine
02. All of You
03. Stella by Starlight
04. All Blues
05. I Thought About You

Exact Audio Copy V0.99 prebeta 5 from 4. May 2009

EAC extraction logfile from 8. January 2013, 1:21

Miles Davis / My Funny Valentine. Miles Davis In Concert

Used drive : PLEXTOR DVDR PX-L890SA Adapter: 6 ID: 0

Read mode : Secure
Utilize accurate stream : Yes
Defeat audio cache : Yes
Make use of C2 pointers : No

Read offset correction : 6
Overread into Lead-In and Lead-Out : No
Fill up missing offset samples with silence : Yes
Delete leading and trailing silent blocks : No
Null samples used in CRC calculations : Yes
Used interface : Native Win32 interface for Win NT & 2000
Gap handling : Appended to previous track

Used output format : User Defined Encoder
Selected bitrate : 1024 kBit/s
Quality : High
Add ID3 tag : No
Command line compressor : C:\Program Files (x86)\FLAC\flac.exe
Additional command line options : -8 -V -T "ARTIST=%a" -T "TITLE=%t" -T "ALBUM=%g" -T "DATE=%y" -T "TRACKNUMBER=%n" -T "GENRE=%m" -T "COMMENT=EAC FLAC -8" %s


TOC of the extracted CD

Track | Start | Length | Start sector | End sector
––––––––––––––––––––––––––––-
1 | 0:00.00 | 15:03.05 | 0 | 67729
2 | 15:03.05 | 14:57.65 | 67730 | 135069
3 | 30:00.70 | 13:01.20 | 135070 | 193664
4 | 43:02.15 | 8:57.05 | 193665 | 233944
5 | 51:59.20 | 11:14.57 | 233945 | 284551


Track 1

Filename C:\EAC\Miles Davis - The Original Jacket Collection (2006) [37CD]\11. Miles Davis - My Funny Valentine. Miles Davis In Concert (1964) {2006 DSD Japan Mini LP Edition, SICP 1211}\01 - My Funny Valentine.wav

Pre-gap length 0:00:02.00

Peak level 98.8 %
Track quality 100.0 %
Test CRC 37821488
Copy CRC 37821488
Accurately ripped (confidence 2) [B72E49F7]
Copy OK

Track 2

Filename C:\EAC\Miles Davis - The Original Jacket Collection (2006) [37CD]\11. Miles Davis - My Funny Valentine. Miles Davis In Concert (1964) {2006 DSD Japan Mini LP Edition, SICP 1211}\02 - All Of You.wav

Pre-gap length 0:00:02.13

Peak level 100.0 %
Track quality 100.0 %
Test CRC 7182F63C
Copy CRC 7182F63C
Accurately ripped (confidence 2) [EF664592]
Copy OK

Track 3

Filename C:\EAC\Miles Davis - The Original Jacket Collection (2006) [37CD]\11. Miles Davis - My Funny Valentine. Miles Davis In Concert (1964) {2006 DSD Japan Mini LP Edition, SICP 1211}\03 - Stella By Starlight.wav

Pre-gap length 0:00:03.06

Peak level 100.0 %
Track quality 100.0 %
Test CRC CEBB861B
Copy CRC CEBB861B
Accurately ripped (confidence 2) [C0CF6016]
Copy OK

Track 4

Filename C:\EAC\Miles Davis - The Original Jacket Collection (2006) [37CD]\11. Miles Davis - My Funny Valentine. Miles Davis In Concert (1964) {2006 DSD Japan Mini LP Edition, SICP 1211}\04 - All Blues.wav

Pre-gap length 0:00:02.30

Peak level 98.8 %
Track quality 100.0 %
Test CRC 741F0971
Copy CRC 741F0971
Accurately ripped (confidence 2) [119011AE]
Copy OK

Track 5

Filename C:\EAC\Miles Davis - The Original Jacket Collection (2006) [37CD]\11. Miles Davis - My Funny Valentine. Miles Davis In Concert (1964) {2006 DSD Japan Mini LP Edition, SICP 1211}\05 - I Thought About You.wav

Pre-gap length 0:00:02.44

Peak level 95.4 %
Track quality 99.9 %
Test CRC C5553DF4
Copy CRC C5553DF4
Accurately ripped (confidence 2) [D032F80F]
Copy OK


All tracks accurately ripped

No errors occurred

End of status report


Miles Davis - The Original Jacket Collection (2006) [30 Albums, 37 CDs] {DSD Japan Mini LP Analog Collection} (part 3of6)



––––––––––––––––––––––––––
Miles Davis - The Original Jacket Collection (2006) [30 Albums, 37 CDs] {DSD Japan Mini LP Analog Collection} (part 3of6)

Miles Davis - 'Four' & More. Recorded Live In Concert (1964) {2006 DSD Japan Mini LP Edition}
EAC rip (secure mode) | FLAC (tracks)+CUE+LOG -> 346 Mb | MP3 @320 -> 128 Mb | Artwork
© 2006 Sony Music Japan / Columbia | SICP 1212 | DSD | HQD High Quality Disc

In an odd bit of programming, Columbia placed the ballads from Miles Davis' February 12, 1964, concert on My Funny Valentine and the uptempo romps on this LP; all of the music has since been reissued on CD. Davis, probably a bit bored by some of his repertoire and energized by the teenage Tony Williams' drumming, performed many of his standards at an increasingly faster pace as time went on. These versions of "So What," "Walkin'," "Four," "Joshua," "Seven Steps to Heaven," and even "There Is No Greater Love" are remarkably rapid, with the themes quickly thrown out before Davis, George Coleman, and Herbie Hancock take their solos. Highly recommended and rather exciting music, it's one of the last times Davis would be documented playing a full set of standards.

Personnel: Miles Davis (trumpet); Ron Carter (bass instrument); Toni Williams (drums); George Coleman (tenor saxophone); Herbie Hancock (piano)

tracklist:
01. So What
02. Walkin'
03. Joshua
04. Go-Go (Theme and Announcement)
05. Four
06. Seven Steps to Heaven
07. There Is No Greater Love
08. Go-Go (Theme and Announcement)

Exact Audio Copy V0.99 prebeta 5 from 4. May 2009

EAC extraction logfile from 8. January 2013, 3:20

Miles Davis / 'Four' & More. Recorded Live In Concert

Used drive : PLEXTOR DVDR PX-L890SA Adapter: 6 ID: 0

Read mode : Secure
Utilize accurate stream : Yes
Defeat audio cache : Yes
Make use of C2 pointers : No

Read offset correction : 6
Overread into Lead-In and Lead-Out : No
Fill up missing offset samples with silence : Yes
Delete leading and trailing silent blocks : No
Null samples used in CRC calculations : Yes
Used interface : Native Win32 interface for Win NT & 2000
Gap handling : Appended to previous track

Used output format : User Defined Encoder
Selected bitrate : 1024 kBit/s
Quality : High
Add ID3 tag : No
Command line compressor : C:\Program Files (x86)\FLAC\flac.exe
Additional command line options : -8 -V -T "ARTIST=%a" -T "TITLE=%t" -T "ALBUM=%g" -T "DATE=%y" -T "TRACKNUMBER=%n" -T "GENRE=%m" -T "COMMENT=EAC FLAC -8" %s


TOC of the extracted CD

Track | Start | Length | Start sector | End sector
––––––––––––––––––––––––––––-
1 | 0:00.00 | 9:10.20 | 0 | 41269
2 | 9:10.20 | 8:07.67 | 41270 | 77861
3 | 17:18.12 | 9:32.23 | 77862 | 120784
4 | 26:50.35 | 1:40.50 | 120785 | 128334
5 | 28:31.10 | 6:19.70 | 128335 | 156829
6 | 34:51.05 | 7:44.72 | 156830 | 191701
7 | 42:36.02 | 10:02.33 | 191702 | 236884
8 | 52:38.35 | 1:21.30 | 236885 | 242989


Track 1

Filename C:\EAC\Miles Davis - The Original Jacket Collection (2006) [37CD]\12. Miles Davis - 'Four' & More. Recorded Live In Concert (1964) {2006 DSD Japan Mini LP Edition, SICP 1212}\01 - So What.wav

Pre-gap length 0:00:02.00

Peak level 100.0 %
Track quality 100.0 %
Test CRC E9E5B5D0
Copy CRC E9E5B5D0
Accurately ripped (confidence 34) [411EE91F]
Copy OK

Track 2

Filename C:\EAC\Miles Davis - The Original Jacket Collection (2006) [37CD]\12. Miles Davis - 'Four' & More. Recorded Live In Concert (1964) {2006 DSD Japan Mini LP Edition, SICP 1212}\02 - Walkin'.wav

Peak level 100.0 %
Track quality 100.0 %
Test CRC 122388E8
Copy CRC 122388E8
Accurately ripped (confidence 35) [C95D8205]
Copy OK

Track 3

Filename C:\EAC\Miles Davis - The Original Jacket Collection (2006) [37CD]\12. Miles Davis - 'Four' & More. Recorded Live In Concert (1964) {2006 DSD Japan Mini LP Edition, SICP 1212}\03 - Joshua.wav

Peak level 98.8 %
Track quality 100.0 %
Test CRC E6CE1628
Copy CRC E6CE1628
Accurately ripped (confidence 35) [DFEB6A1F]
Copy OK

Track 4

Filename C:\EAC\Miles Davis - The Original Jacket Collection (2006) [37CD]\12. Miles Davis - 'Four' & More. Recorded Live In Concert (1964) {2006 DSD Japan Mini LP Edition, SICP 1212}\04 - Go-Go (Theme and Announcement).wav

Peak level 100.0 %
Track quality 100.0 %
Test CRC 79A0ABFA
Copy CRC 79A0ABFA
Accurately ripped (confidence 35) [91909E4D]
Copy OK

Track 5

Filename C:\EAC\Miles Davis - The Original Jacket Collection (2006) [37CD]\12. Miles Davis - 'Four' & More. Recorded Live In Concert (1964) {2006 DSD Japan Mini LP Edition, SICP 1212}\05 - Four.wav

Pre-gap length 0:00:02.26

Peak level 98.7 %
Track quality 100.0 %
Test CRC 443D4E32
Copy CRC 443D4E32
Accurately ripped (confidence 35) [80DEE07C]
Copy OK

Track 6

Filename C:\EAC\Miles Davis - The Original Jacket Collection (2006) [37CD]\12. Miles Davis - 'Four' & More. Recorded Live In Concert (1964) {2006 DSD Japan Mini LP Edition, SICP 1212}\06 - Seven Steps To Heaven.wav

Peak level 98.8 %
Track quality 100.0 %
Test CRC 3E2CFAA1
Copy CRC 3E2CFAA1
Accurately ripped (confidence 34) [87034B16]
Copy OK

Track 7

Filename C:\EAC\Miles Davis - The Original Jacket Collection (2006) [37CD]\12. Miles Davis - 'Four' & More. Recorded Live In Concert (1964) {2006 DSD Japan Mini LP Edition, SICP 1212}\07 - There Is No Greater Love.wav

Peak level 98.8 %
Track quality 100.0 %
Test CRC 9D59AF5B
Copy CRC 9D59AF5B
Accurately ripped (confidence 35) [E723195F]
Copy OK

Track 8

Filename C:\EAC\Miles Davis - The Original Jacket Collection (2006) [37CD]\12. Miles Davis - 'Four' & More. Recorded Live In Concert (1964) {2006 DSD Japan Mini LP Edition, SICP 1212}\08 - Go-Go (Theme and Announcement).wav

Peak level 98.8 %
Track quality 100.0 %
Test CRC E706B1F1
Copy CRC E706B1F1
Accurately ripped (confidence 35) [98BC530A]
Copy OK


All tracks accurately ripped

No errors occurred

End of status report


Miles Davis - The Original Jacket Collection (2006) [30 Albums, 37 CDs] {DSD Japan Mini LP Analog Collection} (part 3of6)



–––––––––––––––––––––––––––-
Miles Davis - The Original Jacket Collection (2006) [30 Albums, 37 CDs] {DSD Japan Mini LP Analog Collection} (part 3of6)

Miles Davis - Miles in Tokyo (1964) {2006 DSD Japan Mini LP Edition}
EAC rip (secure mode) | FLAC (tracks)+CUE+LOG -> 351 Mb | MP3 @320 -> 130 Mb | Artwork
© 2006 Sony Music Japan / Columbia | SICP 1213 | DSD | HQD High Quality Disc

After George Coleman left the Miles Davis Quintet, tenor-saxophonist Sam Rivers took his place for a short period including a tour of Japan. Davis did not care for Rivers's avant-garde style (they failed to develop any chemistry) and soon replaced him, but this live LP (originally only issued in Japan) survived to document this brief association. The music (five lengthy versions of standards) is actually of high quality with both Davis and Rivers in fine form and the young rhythm section (pianist Herbie Hancock, bassist Ron Carter, and drummer Tony Williams) pushing the trumpeter/leader to open up his style.

Personnel:
Miles Davis Trumpet
Ron Carter Bass
Herbie Hancock Piano
Sam Rivers Sax
Tony Williams Drums

tracklist:
01. Introduction
02. My Funny Valentine
03. So What
04. Walkin'
05. All of You
06. Theme

Exact Audio Copy V0.99 prebeta 5 from 4. May 2009

EAC extraction logfile from 8. January 2013, 5:26

Miles Davis / Miles In Tokyo

Used drive : PLEXTOR DVDR PX-L890SA Adapter: 6 ID: 0

Read mode : Secure
Utilize accurate stream : Yes
Defeat audio cache : Yes
Make use of C2 pointers : No

Read offset correction : 6
Overread into Lead-In and Lead-Out : No
Fill up missing offset samples with silence : Yes
Delete leading and trailing silent blocks : No
Null samples used in CRC calculations : Yes
Used interface : Native Win32 interface for Win NT & 2000
Gap handling : Appended to previous track

Used output format : User Defined Encoder
Selected bitrate : 1024 kBit/s
Quality : High
Add ID3 tag : No
Command line compressor : C:\Program Files (x86)\FLAC\flac.exe
Additional command line options : -8 -V -T "ARTIST=%a" -T "TITLE=%t" -T "ALBUM=%g" -T "DATE=%y" -T "TRACKNUMBER=%n" -T "GENRE=%m" -T "COMMENT=EAC FLAC -8" %s


TOC of the extracted CD

Track | Start | Length | Start sector | End sector
––––––––––––––––––––––––––––-
1 | 0:00.00 | 1:10.27 | 0 | 5276
2 | 1:10.27 | 10:17.06 | 5277 | 51557
3 | 11:27.33 | 12:50.31 | 51558 | 109338
4 | 24:17.64 | 8:05.36 | 109339 | 145749
5 | 32:23.25 | 9:15.00 | 145750 | 187374
6 | 41:38.25 | 11:18.38 | 187375 | 238262
7 | 52:56.63 | 1:20.52 | 238263 | 244314


Track 1

Filename C:\EAC\Miles Davis - The Original Jacket Collection (2006) [37CD]\13. Miles Davis - Miles in Tokyo (1964) {2006 DSD Japan Mini LP Edition, SICP 1213}\01 - Introduction.wav

Pre-gap length 0:00:02.00

Peak level 86.5 %
Track quality 99.8 %
Test CRC E2A8E2FF
Copy CRC E2A8E2FF
Accurately ripped (confidence 5) [D1289360]
Copy OK

Track 2

Filename C:\EAC\Miles Davis - The Original Jacket Collection (2006) [37CD]\13. Miles Davis - Miles in Tokyo (1964) {2006 DSD Japan Mini LP Edition, SICP 1213}\02 - If I Were A Bell.wav

Peak level 99.6 %
Track quality 100.0 %
Test CRC A9A58540
Copy CRC A9A58540
Accurately ripped (confidence 5) [7071F256]
Copy OK

Track 3

Filename C:\EAC\Miles Davis - The Original Jacket Collection (2006) [37CD]\13. Miles Davis - Miles in Tokyo (1964) {2006 DSD Japan Mini LP Edition, SICP 1213}\03 - My Funny Valentine.wav

Pre-gap length 0:00:01.17

Peak level 99.7 %
Track quality 100.0 %
Test CRC 376EA63F
Copy CRC 376EA63F
Accurately ripped (confidence 5) [BB92DD87]
Copy OK

Track 4

Filename C:\EAC\Miles Davis - The Original Jacket Collection (2006) [37CD]\13. Miles Davis - Miles in Tokyo (1964) {2006 DSD Japan Mini LP Edition, SICP 1213}\04 - So What.wav

Pre-gap length 0:00:01.45

Peak level 99.7 %
Track quality 99.9 %
Test CRC B34CE6B5
Copy CRC B34CE6B5
Accurately ripped (confidence 5) [085AA302]
Copy OK

Track 5

Filename C:\EAC\Miles Davis - The Original Jacket Collection (2006) [37CD]\13. Miles Davis - Miles in Tokyo (1964) {2006 DSD Japan Mini LP Edition, SICP 1213}\05 - Walkin'.wav

Pre-gap length 0:00:01.40

Peak level 99.8 %
Track quality 100.0 %
Test CRC 9B5B55AF
Copy CRC 9B5B55AF
Accurately ripped (confidence 5) [C84C9DC3]
Copy OK

Track 6

Filename C:\EAC\Miles Davis - The Original Jacket Collection (2006) [37CD]\13. Miles Davis - Miles in Tokyo (1964) {2006 DSD Japan Mini LP Edition, SICP 1213}\06 - All Of You.wav

Pre-gap length 0:00:01.36

Peak level 99.5 %
Track quality 100.0 %
Test CRC 791A2995
Copy CRC 791A2995
Accurately ripped (confidence 5) [CEA483D6]
Copy OK

Track 7

Filename C:\EAC\Miles Davis - The Original Jacket Collection (2006) [37CD]\13. Miles Davis - Miles in Tokyo (1964) {2006 DSD Japan Mini LP Edition, SICP 1213}\07 - Theme and Announcement.wav

Peak level 99.7 %
Track quality 99.8 %
Test CRC 8187F492
Copy CRC 8187F492
Accurately ripped (confidence 5) [767EB4AB]
Copy OK


All tracks accurately ripped

No errors occurred

End of status report


Miles Davis - The Original Jacket Collection (2006) [30 Albums, 37 CDs] {DSD Japan Mini LP Analog Collection} (part 3of6)



––––––––––––––––––––––––––––
Miles Davis - The Original Jacket Collection (2006) [30 Albums, 37 CDs] {DSD Japan Mini LP Analog Collection} (part 3of6)

Miles Davis - Miles In Berlin (1964) {2006 DSD Japan Mini LP Edition}
EAC rip (secure mode) | FLAC (tracks)+CUE+LOG -> 137 Mb | MP3 @320 -> 103 Mb | Artwork
© 2006 Sony Music Japan / Columbia | SICP 1214 | DSD | HQD High Quality Disc

Recorded live in Germany at the Berlin Philharmonic, Miles in Berlin represents the first recording of trumpeter Miles Davis with tenor saxophonist Wayne Shorter. For various reasons, saxophonists George Coleman and Sam Rivers had both come and gone as members of Davis' band. With the addition of Shorter in 1964, Davis had found the lineup of musicians that he would stick with until 1968 and produce some of the most influential albums of his career – collected on The Miles Davis Quintet, 1965-68: The Complete Columbia Studio. Eventually known as the "second great quintet," most of the players here, including pianist Herbie Hancock, bassist Ron Carter, and drummer Tony Williams, had been with Davis for just under a year. In that time, they had taken his traditional repertoire of standards and originals and reworked them with a more adventurous, edgy approach that flirted with the avant-garde. While there isn't a huge difference in the sound of this band or choice of songs from the group that recorded Seven Steps to Heaven or Miles Davis in Europe, there is a palpable sense of creative abandon in Davis' performance as well as synergy to the group sound that seems to foreshadow the innovative music to come.

Personnel: Miles Davis (trumpet); Wayne Shorter (tenor saxophone); Herbie Hancock (piano); Ron Carter (bass instrument); Tony Williams (drums).

tracklist:
01. Milestones
02. Autumn Leaves
03. So What
04. Walkin'
05. Go-Go (Theme And Announcement)

Exact Audio Copy V0.99 prebeta 5 from 4. May 2009

EAC extraction logfile from 8. January 2013, 6:48

Miles Davis / Miles In Berlin

Used drive : PLEXTOR DVDR PX-L890SA Adapter: 6 ID: 0

Read mode : Secure
Utilize accurate stream : Yes
Defeat audio cache : Yes
Make use of C2 pointers : No

Read offset correction : 6
Overread into Lead-In and Lead-Out : No
Fill up missing offset samples with silence : Yes
Delete leading and trailing silent blocks : No
Null samples used in CRC calculations : Yes
Used interface : Native Win32 interface for Win NT & 2000
Gap handling : Appended to previous track

Used output format : User Defined Encoder
Selected bitrate : 1024 kBit/s
Quality : High
Add ID3 tag : No
Command line compressor : C:\Program Files (x86)\FLAC\flac.exe
Additional command line options : -8 -V -T "ARTIST=%a" -T "TITLE=%t" -T "ALBUM=%g" -T "DATE=%y" -T "TRACKNUMBER=%n" -T "GENRE=%m" -T "COMMENT=EAC FLAC -8" %s


TOC of the extracted CD

Track | Start | Length | Start sector | End sector
––––––––––––––––––––––––––––-
1 | 0:00.00 | 8:57.36 | 0 | 40310
2 | 8:57.36 | 12:37.68 | 40311 | 97153
3 | 21:35.29 | 10:27.10 | 97154 | 144188
4 | 32:02.39 | 10:39.20 | 144189 | 192133
5 | 42:41.59 | 1:46.18 | 192134 | 200101


Track 1

Filename C:\EAC\Miles Davis - The Original Jacket Collection (2006) [37CD]\14. Miles Davis - Miles In Berlin (1964) {2006 DSD Japan Mini LP Edition, SICP 1214}\01 - Milestones.wav

Pre-gap length 0:00:02.00

Peak level 100.0 %
Track quality 100.0 %
Test CRC 47202C87
Copy CRC 47202C87
Accurately ripped (confidence 5) [9BF2115F]
Copy OK

Track 2

Filename C:\EAC\Miles Davis - The Original Jacket Collection (2006) [37CD]\14. Miles Davis - Miles In Berlin (1964) {2006 DSD Japan Mini LP Edition, SICP 1214}\02 - Autumn Leaves.wav

Peak level 100.0 %
Track quality 100.0 %
Test CRC B54C2B0B
Copy CRC B54C2B0B
Accurately ripped (confidence 5) [6DAA5245]
Copy OK

Track 3

Filename C:\EAC\Miles Davis - The Original Jacket Collection (2006) [37CD]\14. Miles Davis - Miles In Berlin (1964) {2006 DSD Japan Mini LP Edition, SICP 1214}\03 - So What.wav

Peak level 86.9 %
Track quality 100.0 %
Test CRC 44FF1CF5
Copy CRC 44FF1CF5
Accurately ripped (confidence 5) [449D36AE]
Copy OK

Track 4

Filename C:\EAC\Miles Davis - The Original Jacket Collection (2006) [37CD]\14. Miles Davis - Miles In Berlin (1964) {2006 DSD Japan Mini LP Edition, SICP 1214}\04 - Walkin'.wav

Peak level 82.2 %
Track quality 100.0 %
Test CRC 08CC82E1
Copy CRC 08CC82E1
Accurately ripped (confidence 5) [F4879040]
Copy OK

Track 5

Filename C:\EAC\Miles Davis - The Original Jacket Collection (2006) [37CD]\14. Miles Davis - Miles In Berlin (1964) {2006 DSD Japan Mini LP Edition, SICP 1214}\05 - Theme.wav

Peak level 68.2 %
Track quality 99.8 %
Test CRC ABDBA34A
Copy CRC ABDBA34A
Accurately ripped (confidence 5) [F6B51ADD]
Copy OK


All tracks accurately ripped

No errors occurred

End of status report


Miles Davis - The Original Jacket Collection (2006) [30 Albums, 37 CDs] {DSD Japan Mini LP Analog Collection} (part 3of6)



–––––––––––––––––––––––
Miles Davis - The Original Jacket Collection (2006) [30 Albums, 37 CDs] {DSD Japan Mini LP Analog Collection} (part 3of6)

Miles Davis - E.S.P. (1965) {2006 DSD Japan Mini LP Edition}
EAC rip (secure mode) | FLAC (tracks)+CUE+LOG -> 259 Mb | MP3 @320 -> 115 Mb | Artwork
© 2006 Sony Music Japan / Columbia | SICP 1215 | DSD | HQD High Quality Disc

ESP marks the beginning of a revitalization for Miles Davis, as his second classic quintet – saxophonist Wayne Shorter, pianist Herbie Hancock, bassist Ron Carter, and drummer Tony Williams – gels, establishing what would become their signature adventurous hard bop. Miles had been moving toward this direction in the two years preceding the release of ESP and he had recorded with everyone outside of Shorter prior to this record, but his addition galvanizes the group, pushing them toward music that was recognizably bop but as adventurous as jazz's avant-garde. Outwardly, this music doesn't take as many risks as Coltrane or Ornette Coleman's recordings of the mid-'60s, but by borrowing some of the same theories – a de-emphasis of composition in favor of sheer improvisation, elastic definitions of tonality – they created a unique sound that came to define the very sound of modern jazz. Certainly, many musicians have returned to this group for inspiration, but their recordings remain fresh, because they exist at this fine dividing line between standard bop and avant. On ESP, they tilt a bit toward conventional hard bop (something that's apparent toward the end of the record), largely because this is their first effort, but the fact is, this difference between this album and hard bop from the early '60s is remarkable. This is exploratory music, whether it's rushing by in a flurry of notes or elegantly reclining in Hancock's calm yet complex chords. The compositions are brilliantly structured as well, encouraging such free-form exploration with their elliptical yet memorable themes. This quintet may have cut more adventurous records, but ESP remains one of their very best albums.

Personnel: Miles Davis (trumpet); Wayne Shorter (tenor saxophone); Herbie Hancock (piano); Ron Carter (acoustic bass); Tony Williams (drums).

tracklist:
01. E.S.P.
02. Eighty-One
03. Little One
04. R.J.
05. Agitation
07. Mood

Exact Audio Copy V0.99 prebeta 5 from 4. May 2009

EAC extraction logfile from 8. February 2013, 21:04

Miles Davis / E.S.P.

Used drive : PLEXTOR DVDR PX-L890SA Adapter: 6 ID: 0

Read mode : Secure
Utilize accurate stream : Yes
Defeat audio cache : Yes
Make use of C2 pointers : No

Read offset correction : 6
Overread into Lead-In and Lead-Out : No
Fill up missing offset samples with silence : Yes
Delete leading and trailing silent blocks : No
Null samples used in CRC calculations : Yes
Used interface : Native Win32 interface for Win NT & 2000
Gap handling : Appended to previous track

Used output format : User Defined Encoder
Selected bitrate : 1024 kBit/s
Quality : High
Add ID3 tag : No
Command line compressor : C:\Program Files (x86)\FLAC\flac.exe
Additional command line options : -8 -V -T "ARTIST=%a" -T "TITLE=%t" -T "ALBUM=%g" -T "DATE=%y" -T "TRACKNUMBER=%n" -T "GENRE=%m" -T "COMMENT=EAC FLAC -8" %s


TOC of the extracted CD

Track | Start | Length | Start sector | End sector
––––––––––––––––––––––––––––-
1 | 0:00.00 | 5:31.69 | 0 | 24893
2 | 5:31.69 | 6:17.40 | 24894 | 53208
3 | 11:49.34 | 7:21.49 | 53209 | 86332
4 | 19:11.08 | 3:57.04 | 86333 | 104111
5 | 23:08.12 | 7:49.51 | 104112 | 139337
6 | 30:57.63 | 8:33.57 | 139338 | 177869
7 | 39:31.45 | 8:49.43 | 177870 | 217587


Track 1

Filename C:\EAC\Miles Davis - The Original Jacket Collection (2006) [37CD]\15. Miles Davis - E.S.P. (1965) {2006 DSD Japan Mini LP Edition, SICP 1215}\01 - E.S.P..wav

Pre-gap length 0:00:02.00

Peak level 95.3 %
Track quality 100.0 %
Test CRC 92BB5494
Copy CRC 92BB5494
Accurately ripped (confidence 8) [FB33D555]
Copy OK

Track 2

Filename C:\EAC\Miles Davis - The Original Jacket Collection (2006) [37CD]\15. Miles Davis - E.S.P. (1965) {2006 DSD Japan Mini LP Edition, SICP 1215}\02 - Eighty-One.wav

Pre-gap length 0:00:01.58

Peak level 88.3 %
Track quality 99.9 %
Test CRC 7EB1BED1
Copy CRC 7EB1BED1
Accurately ripped (confidence 8) [51144B45]
Copy OK

Track 3

Filename C:\EAC\Miles Davis - The Original Jacket Collection (2006) [37CD]\15. Miles Davis - E.S.P. (1965) {2006 DSD Japan Mini LP Edition, SICP 1215}\03 - Little One.wav

Pre-gap length 0:00:02.44

Peak level 76.4 %
Track quality 99.9 %
Test CRC 220F1227
Copy CRC 220F1227
Accurately ripped (confidence 7) [B6A88193]
Copy OK

Track 4

Filename C:\EAC\Miles Davis - The Original Jacket Collection (2006) [37CD]\15. Miles Davis - E.S.P. (1965) {2006 DSD Japan Mini LP Edition, SICP 1215}\04 - R.J..wav

Pre-gap length 0:00:01.12

Peak level 70.7 %
Track quality 100.0 %
Test CRC C7BFD0ED
Copy CRC C7BFD0ED
Accurately ripped (confidence 8) [35B3D63F]
Copy OK

Track 5

Filename C:\EAC\Miles Davis - The Original Jacket Collection (2006) [37CD]\15. Miles Davis - E.S.P. (1965) {2006 DSD Japan Mini LP Edition, SICP 1215}\05 - Agitation.wav

Peak level 100.0 %
Track quality 100.0 %
Test CRC 840ACA05
Copy CRC 840ACA05
Accurately ripped (confidence 8) [6D536B4D]
Copy OK

Track 6

Filename C:\EAC\Miles Davis - The Original Jacket Collection (2006) [37CD]\15. Miles Davis - E.S.P. (1965) {2006 DSD Japan Mini LP Edition, SICP 1215}\06 - Iris.wav

Pre-gap length 0:00:01.06

Peak level 80.2 %
Track quality 100.0 %
Test CRC 8661F839
Copy CRC 8661F839
Accurately ripped (confidence 8) [594BB8F3]
Copy OK

Track 7

Filename C:\EAC\Miles Davis - The Original Jacket Collection (2006) [37CD]\15. Miles Davis - E.S.P. (1965) {2006 DSD Japan Mini LP Edition, SICP 1215}\07 - Mood.wav

Pre-gap length 0:00:01.12

Peak level 69.3 %
Track quality 100.0 %
Test CRC 342FEE9A
Copy CRC 342FEE9A
Accurately ripped (confidence 8) [F6586D66]
Copy OK


All tracks accurately ripped

No errors occurred

End of status report


Miles Davis - The Original Jacket Collection (2006) [30 Albums, 37 CDs] {DSD Japan Mini LP Analog Collection} (part 3of6)


See also:
Miles Davis - The Original Jacket Collection (2006) [30 Albums, 37 CDs] {DSD Japan Mini LP Analog Collection} (part 1of6)
Miles Davis - The Original Jacket Collection (2006) [30 Albums, 37 CDs] {DSD Japan Mini LP Analog Collection} (part 2of6)
===



Miles Davis - My Funny Valentine (1964) {2006 DSD Japan Mini LP SICP 1211}

Nitroflare

Miles Davis - 'Four' & More (1964) {2006 DSD Japan Mini LP SICP 1212}

Nitroflare

Miles Davis - Miles In Tokyo (1964) {2006 DSD Japan Mini LP SICP 1213}

Nitroflare

Miles Davis - Miles In Berlin (1964) {2006 DSD Japan Mini LP SICP 1214}

Nitroflare

Miles Davis - E.S.P. (1965) {2006 DSD Japan Mini LP SICP 1215}

Nitroflare