Subcategories

Miles Davis - The Original Jacket Collection (2006) [30 Albums, 37 CDs] {DSD Japan Mini LP Analog Collection} (part 1of6)

Posted By: ruskaval
Miles Davis - The Original Jacket Collection (2006) [30 Albums, 37 CDs] {DSD Japan Mini LP Analog Collection} (part 1of6)

Miles Davis - The Original Jacket Collection (2006) [30 Albums, 37 CDs] {DSD Japan Mini LP Analog Collection} (part 1of6)
EAC rip (secure mode) | FLAC (tracks)+CUE+LOG -> 1.24 Gb | MP3 @320 -> 515 Mb | Artwork
© 2006 Sony Music Japan / Columbia | SICP 1201~05 | DSD | HQD High Quality Disc
Jazz / Hard Bop / Modal Music / Trumpet

With the release of the spectral title tune, and the efforts of the Columbia marketing and publicity departments behind him, a thirty-year old Miles Davis entered into a period of extraordinary artistic maturity and growth. And Miles instinctively knew how to cultivate his star quality. Looming behind those shades, was the diffident, sensitive anti-hero–proud and defiant–who only spoke to his audience through his horn, and turned his back on them when the other soloists were blowing.
Miles Davis - The Original Jacket Collection (2006) [30 Albums, 37 CDs] {DSD Japan Mini LP Analog Collection} (part 1of6)


––––––––
Miles Davis - The Original Jacket Collection (2006) [30 Albums, 37 CDs] {DSD Japan Mini LP Analog Collection} (part 1of6)

Miles Davis - 'Round About Midnight (1956) {2006 DSD Japan Mini LP Edition}
EAC rip (secure mode) | FLAC (tracks)+CUE+LOG -> 190 Mb | MP3 @320 -> 94 Mb | Artwork
© 2006 Sony Music Japan / Columbia | SICP 1201 | DSD | HQD High Quality Disc

The combination of attitude and intellect was irresistible. Beginning with ROUND ABOUT MIDNIGHT and proceeding through a remarkable succession of famous recordings over the next 30 years, Miles Davis became one of the greatest soloists, arrangers and talent scouts in the history of American music. People who didn't own a single jazz record came to know his name–Miles was a jazz icon.

His famous intro on the title tune is based on mentor Dizzy Gillespie's arrangement, and Miles' tone, always a strong point, has here matured into something deeply personal and unique. His provocative use of space and silence–matched only by Lester Young, Billie Holiday and Thelonious Monk–sets up the famous release and Coltrane's agitated statement. Here and on the Prestige recordings, Coltrane found his voice as Miles' foil, while "The Rhythm Section" (pianist Red Garland, bassist Paul Chambers and drummer Philly Joe Jones), became the most celebrated in jazz–capable of smooth, bouncy delicacy ("Dear Old Stockholm," "All Of You" and "Bye Bye Blackbird"), hard swing ("Tadd's Delight") and relentless complexity (Charlie Parker's contrapuntal "Ah-Leu-Ch"). A masterpiece.
Personnel: Miles Davis (trumpet); John Coltrane (tenor saxophone); William "Red" Garland (piano); Paul Chambers (bass); Philly Joe Jones (drums).

tracklist:
01. 'Round Midnight
02. Ah-Leu-Cha
03. All Of You
04. Bye Bye Blackbird
05. Tadd's Delight
06. Dear Old Stockholm

Exact Audio Copy V0.99 prebeta 5 from 4. May 2009

EAC extraction logfile from 3. November 2012, 18:06

Miles Davis / 'Round About Midnight

Used drive : PLEXTOR DVDR PX-L890SA Adapter: 6 ID: 0

Read mode : Secure
Utilize accurate stream : Yes
Defeat audio cache : Yes
Make use of C2 pointers : No

Read offset correction : 6
Overread into Lead-In and Lead-Out : No
Fill up missing offset samples with silence : Yes
Delete leading and trailing silent blocks : No
Null samples used in CRC calculations : Yes
Used interface : Native Win32 interface for Win NT & 2000
Gap handling : Appended to previous track

Used output format : User Defined Encoder
Selected bitrate : 1024 kBit/s
Quality : High
Add ID3 tag : No
Command line compressor : C:\Program Files (x86)\FLAC\flac.exe
Additional command line options : -8 -V -T "ARTIST=%a" -T "TITLE=%t" -T "ALBUM=%g" -T "DATE=%y" -T "TRACKNUMBER=%n" -T "GENRE=%m" -T "COMMENT=EAC FLAC -8" %s


TOC of the extracted CD

Track | Start | Length | Start sector | End sector
––––––––––––––––––––––––––––-
1 | 0:00.00 | 5:58.00 | 0 | 26849
2 | 5:58.00 | 5:53.74 | 26850 | 53398
3 | 11:51.74 | 7:04.03 | 53399 | 85201
4 | 18:56.02 | 7:57.56 | 85202 | 121032
5 | 26:53.58 | 4:29.32 | 121033 | 141239
6 | 31:23.15 | 7:51.25 | 141240 | 176589


Track 1

Filename C:\EAC\Miles Davis - The Original Jacket Collection (2006) [37CD]\01. Miles Davis - 'Round About Midnight (1956) {2006 DSD Japan Mini LP Edition, SICP 1201}\01 - 'Round Midnight.wav

Pre-gap length 0:00:02.00

Peak level 96.9 %
Track quality 100.0 %
Test CRC 95C63E92
Copy CRC 95C63E92
Accurately ripped (confidence 15) [CD7CA766]
Copy OK

Track 2

Filename C:\EAC\Miles Davis - The Original Jacket Collection (2006) [37CD]\01. Miles Davis - 'Round About Midnight (1956) {2006 DSD Japan Mini LP Edition, SICP 1201}\02 - Ah-Leu-Cha.wav

Pre-gap length 0:00:02.41

Peak level 96.6 %
Track quality 99.9 %
Test CRC 4A3435D3
Copy CRC 4A3435D3
Accurately ripped (confidence 15) [3CE5F290]
Copy OK

Track 3

Filename C:\EAC\Miles Davis - The Original Jacket Collection (2006) [37CD]\01. Miles Davis - 'Round About Midnight (1956) {2006 DSD Japan Mini LP Edition, SICP 1201}\03 - All Of You.wav

Pre-gap length 0:00:01.84

Peak level 100.0 %
Track quality 99.9 %
Test CRC 4993688F
Copy CRC 4993688F
Accurately ripped (confidence 15) [7D86A80C]
Copy OK

Track 4

Filename C:\EAC\Miles Davis - The Original Jacket Collection (2006) [37CD]\01. Miles Davis - 'Round About Midnight (1956) {2006 DSD Japan Mini LP Edition, SICP 1201}\04 - Bye Bye Blackbird.wav

Pre-gap length 0:00:02.62

Peak level 100.0 %
Track quality 100.0 %
Test CRC 2D08E1B6
Copy CRC 2D08E1B6
Accurately ripped (confidence 15) [0886908A]
Copy OK

Track 5

Filename C:\EAC\Miles Davis - The Original Jacket Collection (2006) [37CD]\01. Miles Davis - 'Round About Midnight (1956) {2006 DSD Japan Mini LP Edition, SICP 1201}\05 - Tadd's Delight.wav

Pre-gap length 0:00:02.53

Peak level 100.0 %
Track quality 100.0 %
Test CRC 7A959AB0
Copy CRC 7A959AB0
Accurately ripped (confidence 15) [2A018ADF]
Copy OK

Track 6

Filename C:\EAC\Miles Davis - The Original Jacket Collection (2006) [37CD]\01. Miles Davis - 'Round About Midnight (1956) {2006 DSD Japan Mini LP Edition, SICP 1201}\06 - Dear Old Stockholm.wav

Pre-gap length 0:00:01.89

Peak level 92.7 %
Track quality 100.0 %
Test CRC D4C7BBBE
Copy CRC D4C7BBBE
Accurately ripped (confidence 16) [BB162D73]
Copy OK


All tracks accurately ripped

No errors occurred

End of status report


Miles Davis - The Original Jacket Collection (2006) [30 Albums, 37 CDs] {DSD Japan Mini LP Analog Collection} (part 1of6)



–––––––––––––––––––––––––––
Miles Davis - The Original Jacket Collection (2006) [30 Albums, 37 CDs] {DSD Japan Mini LP Analog Collection} (part 1of6)

Miles Davis - Miles Ahead (1957) {2006 DSD Japan Mini LP Edition}
EAC rip (secure mode) | FLAC (tracks)+CUE+LOG -> 223 Mb | MP3 @320 -> 91 Mb | Artwork
© 2006 Sony Music Japan / Columbia | SICP 1202 | DSD | HQD High Quality Disc

This album is perhaps most significant for the process it set in motion – the collaboration between Gil Evans and Miles Davis that would produce Porgy and Bess and Sketches of Spain, two of Davis' best albums. That said, this album is a miracle in itself, the result of a big gamble on the part of Columbia Records, who put together Evans and Davis, who hadn't worked together since recording the critically admired but commercially unsuccessful sides that would later be issued as The Birth of the Cool. Columbia also allowed Evans to assemble a 19-piece band for the recordings, at a time when big bands were far out of fashion and also at a time when the resulting recordings could not be released until two years in the future (because of Davis' contractual obligations with Prestige). Davis was also expected to carry the album as its only soloist, and manage not to get lost among a cast of supporting musicians that included a huge horn section. To a large extent, he succeeds. Evans' arrangements in particular are well-suited to the format, and he and Davis formed a deep and close partnership where ideas were swapped back and forth, nurtured, and developed long before they were expressed in the studio. Davis gets off to a great start, with the hyper-kinetic "Springsville," which seems to almost perfectly embody Evans' and Davis' partnership with its light, flexible exchanges between soloist and orchestra. He is strongest on the ballads, though, where his subdued and wistful tone rises high above the hushed accompaniment, especially on "Miles Ahead" and "Blues for Pablo" (which foreshadows the bluesy, Latin-tinged sound of Sketches of Spain). The upbeat "I Don't Want to Be Kissed (By Anyone but You)" is another strong song, but shows the weakness of the format as Davis intersperses a charming, bright, technically challenging solo with a blasting horn section that occasionally buries him. It is a fine end, however, to an album that gave a hint of the greatness that would come as Evans and Davis fine-tuned their partnership over the course of the next several years.

tracklist:
01. Springsville
02. The Maids Of Cadiz
03. The Duke
04. My Ship
05. Miles Ahead
06. Blues For Pablo
07. New Rhumba
08. Meaning Of The Blues
09. Lament
10. I Don't Wanna Be Kissed (By Anyone But You)

Exact Audio Copy V0.99 prebeta 5 from 4. May 2009

EAC extraction logfile from 25. November 2012, 22:24

Miles Davis / Miles Ahead

Used drive : PLEXTOR DVDR PX-L890SA Adapter: 6 ID: 0

Read mode : Secure
Utilize accurate stream : Yes
Defeat audio cache : Yes
Make use of C2 pointers : No

Read offset correction : 6
Overread into Lead-In and Lead-Out : No
Fill up missing offset samples with silence : Yes
Delete leading and trailing silent blocks : No
Null samples used in CRC calculations : Yes
Used interface : Native Win32 interface for Win NT & 2000
Gap handling : Appended to previous track

Used output format : User Defined Encoder
Selected bitrate : 1024 kBit/s
Quality : High
Add ID3 tag : No
Command line compressor : C:\Program Files (x86)\FLAC\flac.exe
Additional command line options : -8 -V -T "ARTIST=%a" -T "TITLE=%t" -T "ALBUM=%g" -T "DATE=%y" -T "TRACKNUMBER=%n" -T "GENRE=%m" -T "COMMENT=EAC FLAC -8" %s


TOC of the extracted CD

Track | Start | Length | Start sector | End sector
––––––––––––––––––––––––––––-
1 | 0:00.00 | 3:27.47 | 0 | 15571
2 | 3:27.47 | 3:53.35 | 15572 | 33081
3 | 7:21.07 | 3:35.14 | 33082 | 49220
4 | 10:56.21 | 4:27.71 | 49221 | 69316
5 | 15:24.17 | 3:30.33 | 69317 | 85099
6 | 18:54.50 | 5:19.68 | 85100 | 109092
7 | 24:14.43 | 4:35.15 | 109093 | 129732
8 | 28:49.58 | 2:50.25 | 129733 | 142507
9 | 31:40.08 | 2:16.06 | 142508 | 152713
10 | 33:56.14 | 3:03.64 | 152714 | 166502


Track 1

Filename C:\EAC\Miles Davis - The Original Jacket Collection (2006) [37CD]\02. Miles Davis - Miles Ahead (1957) {2006 DSD Japan Mini LP Edition, SICP 1202}\01 - Springsville.wav

Pre-gap length 0:00:02.00

Peak level 90.9 %
Track quality 100.0 %
Test CRC 65FB1107
Copy CRC 65FB1107
Accurately ripped (confidence 9) [B7CFA8C5]
Copy OK

Track 2

Filename C:\EAC\Miles Davis - The Original Jacket Collection (2006) [37CD]\02. Miles Davis - Miles Ahead (1957) {2006 DSD Japan Mini LP Edition, SICP 1202}\02 - The Maids Of Cadiz.wav

Peak level 53.9 %
Track quality 100.0 %
Test CRC F6E9656C
Copy CRC F6E9656C
Accurately ripped (confidence 9) [7AFF9193]
Copy OK

Track 3

Filename C:\EAC\Miles Davis - The Original Jacket Collection (2006) [37CD]\02. Miles Davis - Miles Ahead (1957) {2006 DSD Japan Mini LP Edition, SICP 1202}\03 - The Duke.wav

Peak level 100.0 %
Track quality 99.9 %
Test CRC F4E14DD5
Copy CRC F4E14DD5
Accurately ripped (confidence 9) [53468878]
Copy OK

Track 4

Filename C:\EAC\Miles Davis - The Original Jacket Collection (2006) [37CD]\02. Miles Davis - Miles Ahead (1957) {2006 DSD Japan Mini LP Edition, SICP 1202}\04 - My Ship.wav

Peak level 87.2 %
Track quality 99.9 %
Test CRC 91D9BC58
Copy CRC 91D9BC58
Accurately ripped (confidence 9) [5C0173A3]
Copy OK

Track 5

Filename C:\EAC\Miles Davis - The Original Jacket Collection (2006) [37CD]\02. Miles Davis - Miles Ahead (1957) {2006 DSD Japan Mini LP Edition, SICP 1202}\05 - Miles Ahead.wav

Peak level 100.0 %
Track quality 100.0 %
Test CRC 920F9825
Copy CRC 920F9825
Accurately ripped (confidence 9) [0E9C5690]
Copy OK

Track 6

Filename C:\EAC\Miles Davis - The Original Jacket Collection (2006) [37CD]\02. Miles Davis - Miles Ahead (1957) {2006 DSD Japan Mini LP Edition, SICP 1202}\06 - Blues For Pablo.wav

Peak level 100.0 %
Track quality 100.0 %
Test CRC 6B7375AB
Copy CRC 6B7375AB
Accurately ripped (confidence 9) [EB688AAB]
Copy OK

Track 7

Filename C:\EAC\Miles Davis - The Original Jacket Collection (2006) [37CD]\02. Miles Davis - Miles Ahead (1957) {2006 DSD Japan Mini LP Edition, SICP 1202}\07 - New Rhumba.wav

Peak level 81.0 %
Track quality 100.0 %
Test CRC 27D04372
Copy CRC 27D04372
Accurately ripped (confidence 9) [1B60E356]
Copy OK

Track 8

Filename C:\EAC\Miles Davis - The Original Jacket Collection (2006) [37CD]\02. Miles Davis - Miles Ahead (1957) {2006 DSD Japan Mini LP Edition, SICP 1202}\08 - The Meaning Of The Blues.wav

Peak level 44.9 %
Track quality 99.9 %
Test CRC 3CBA4670
Copy CRC 3CBA4670
Accurately ripped (confidence 9) [24C7CD2D]
Copy OK

Track 9

Filename C:\EAC\Miles Davis - The Original Jacket Collection (2006) [37CD]\02. Miles Davis - Miles Ahead (1957) {2006 DSD Japan Mini LP Edition, SICP 1202}\09 - Lament.wav

Peak level 47.4 %
Track quality 100.0 %
Test CRC B155DD3E
Copy CRC B155DD3E
Accurately ripped (confidence 9) [31C49D22]
Copy OK

Track 10

Filename C:\EAC\Miles Davis - The Original Jacket Collection (2006) [37CD]\02. Miles Davis - Miles Ahead (1957) {2006 DSD Japan Mini LP Edition, SICP 1202}\10 - I Don't Wanna Be Kissed (By Anyone But You).wav

Peak level 77.6 %
Track quality 100.0 %
Test CRC B0B6078F
Copy CRC B0B6078F
Accurately ripped (confidence 9) [B23FEAB8]
Copy OK


All tracks accurately ripped

No errors occurred

End of status report


Miles Davis - The Original Jacket Collection (2006) [30 Albums, 37 CDs] {DSD Japan Mini LP Analog Collection} (part 1of6)



––––––––––––––––––-
Miles Davis - The Original Jacket Collection (2006) [30 Albums, 37 CDs] {DSD Japan Mini LP Analog Collection} (part 1of6)

Miles Davis - Milestones (1958) {2006 DSD Japan Mini LP Edition}
EAC rip (secure mode) | FLAC (tracks)+CUE+LOG -> 309 Mb | MP3 @320 -> 113 Mb | Artwork
© 2006 Sony Music Japan / Columbia | SICP 1203 | DSD | HQD High Quality Disc

The title does not refer to the trumpeter's composition from his first recording date but is an acknowledgement of this session's visceral impact. Tenor saxophonist John Coltrane had left the trumpeter in the spring of 1957 to join Thelonious … Full DescriptionMonk for his engagement at New York's Five Spot, and was replaced by a rising star on alto saxophone, Julian "Cannonball" Adderley. When he returned, Davis had a formidable three-horn front line to go with "The Rhythm Section."

MILESTONES is a bracing rhythmic tonic, coming after the refined ballad moods and lush orchestral pastels of MILES AHEAD. And from the furious, adults-only hyper-drive of the opening "Dr. Jekyll" (with its thrilling tenor/alto battle and daredevil drum breaks), through a dazzling Dizzy Gillespie/John Lewis bebop anthem ("Two Bass Hit") to the bright dancing groove of "Straight, No Chaser," MILESTONES is an epic historical event–even by Miles' standards.

The slow, bluesy "Sid's Ahead" first appeared as "Weirdo" on Miles' March 1954 Blue Note session, and offers tantalizing portraits of the horns. Coltrane attacks his line like a blues guitarist, in short bursts of vocal cries and loping syncopated tangents; Miles comes out jabbing, slow and purposeful, feinting and fading behind the beat with lovely long tones and bends; Cannonball comes out all agitated and excitable, with little quicksilver runs and sing-songy asides (such as "Skip to my lou my darling"). Pianist Red Garland's famous feature on the traditional "Billy Boy" highlights his mastery of a two handed orchestral style, his brilliant use of space in blues phrasing, and his interplay with the driving young Paul Chambers (with his enormous beat and impeccable bow work) and the fiery Philly Joe Jones (whose complex melodic variations transcend the technical limitations of the drums).

tracklist:
01. Dr. Jackle (Dr. Jekyll on cover)
02. Sid's Ahead
03. Two Bass Hit
04. Milestones
05. Billy Boy
06. Straight, No Chaser

Exact Audio Copy V0.99 prebeta 5 from 4. May 2009

EAC extraction logfile from 24. January 2013, 23:04

Miles Davis / Milestones

Used drive : PLEXTOR DVDR PX-L890SA Adapter: 6 ID: 0

Read mode : Secure
Utilize accurate stream : Yes
Defeat audio cache : Yes
Make use of C2 pointers : No

Read offset correction : 6
Overread into Lead-In and Lead-Out : No
Fill up missing offset samples with silence : Yes
Delete leading and trailing silent blocks : No
Null samples used in CRC calculations : Yes
Used interface : Native Win32 interface for Win NT & 2000
Gap handling : Appended to previous track

Used output format : User Defined Encoder
Selected bitrate : 1024 kBit/s
Quality : High
Add ID3 tag : No
Command line compressor : C:\Program Files (x86)\FLAC\flac.exe
Additional command line options : -8 -V -T "ARTIST=%a" -T "TITLE=%t" -T "ALBUM=%g" -T "DATE=%y" -T "TRACKNUMBER=%n" -T "GENRE=%m" -T "COMMENT=EAC FLAC -8" %s


TOC of the extracted CD

Track | Start | Length | Start sector | End sector
––––––––––––––––––––––––––––-
1 | 0:00.00 | 5:49.65 | 0 | 26239
2 | 5:49.65 | 13:02.31 | 26240 | 84920
3 | 18:52.21 | 5:14.41 | 84921 | 108511
4 | 24:06.62 | 5:44.11 | 108512 | 134322
5 | 29:50.73 | 7:14.46 | 134323 | 166918
6 | 37:05.44 | 10:36.17 | 166919 | 214635


Track 1

Filename C:\EAC\Miles Davis - The Original Jacket Collection (2006) [37CD]\03. Miles Davis - Milestones (1958) {2006 DSD Japan Mini LP Edition, SICP 1203}\01 - Dr. Jekyll.wav

Pre-gap length 0:00:02.00

Peak level 100.0 %
Track quality 100.0 %
Test CRC 195AFDE9
Copy CRC 195AFDE9
Accurately ripped (confidence 10) [1A753D32]
Copy OK

Track 2

Filename C:\EAC\Miles Davis - The Original Jacket Collection (2006) [37CD]\03. Miles Davis - Milestones (1958) {2006 DSD Japan Mini LP Edition, SICP 1203}\02 - Sid's Ahead.wav

Pre-gap length 0:00:02.80

Peak level 100.0 %
Track quality 100.0 %
Test CRC 865CF22C
Copy CRC 865CF22C
Accurately ripped (confidence 10) [4405FB8E]
Copy OK

Track 3

Filename C:\EAC\Miles Davis - The Original Jacket Collection (2006) [37CD]\03. Miles Davis - Milestones (1958) {2006 DSD Japan Mini LP Edition, SICP 1203}\03 - Two Bass Hit.wav

Pre-gap length 0:00:01.53

Peak level 100.0 %
Track quality 100.0 %
Test CRC 2E37D5AF
Copy CRC 2E37D5AF
Accurately ripped (confidence 10) [837C1099]
Copy OK

Track 4

Filename C:\EAC\Miles Davis - The Original Jacket Collection (2006) [37CD]\03. Miles Davis - Milestones (1958) {2006 DSD Japan Mini LP Edition, SICP 1203}\04 - Miles.wav

Pre-gap length 0:00:02.78

Peak level 85.3 %
Track quality 100.0 %
Test CRC 5D7CE056
Copy CRC 5D7CE056
Accurately ripped (confidence 10) [907C00ED]
Copy OK

Track 5

Filename C:\EAC\Miles Davis - The Original Jacket Collection (2006) [37CD]\03. Miles Davis - Milestones (1958) {2006 DSD Japan Mini LP Edition, SICP 1203}\05 - Billy Boy.wav

Peak level 100.0 %
Track quality 100.0 %
Test CRC 13B5CBC7
Copy CRC 13B5CBC7
Accurately ripped (confidence 10) [C2121DEC]
Copy OK

Track 6

Filename C:\EAC\Miles Davis - The Original Jacket Collection (2006) [37CD]\03. Miles Davis - Milestones (1958) {2006 DSD Japan Mini LP Edition, SICP 1203}\06 - Straight, No Chaser.wav

Pre-gap length 0:00:03.09

Peak level 100.0 %
Track quality 99.9 %
Test CRC 8E181B0D
Copy CRC 8E181B0D
Accurately ripped (confidence 10) [CA395F88]
Copy OK


All tracks accurately ripped

No errors occurred

End of status report


Miles Davis - The Original Jacket Collection (2006) [30 Albums, 37 CDs] {DSD Japan Mini LP Analog Collection} (part 1of6)



––––––––––––––––––
Miles Davis - The Original Jacket Collection (2006) [30 Albums, 37 CDs] {DSD Japan Mini LP Analog Collection} (part 1of6)

Miles Davis - 1958 Miles (1959) {2006 DSD Japan Mini LP Edition}
EAC rip (secure mode) | FLAC (tracks)+CUE+LOG -> 257 Mb | MP3 @320 -> 95 Mb | Artwork
© 2006 Sony Music Japan / Columbia | SICP 1204 | DSD | HQD High Quality Disc

1958 MILES is a Japanese album which gathers together Miles Davis' four non-LP studio recordings from that watershed year ("On Green Dolphin Street," "Fran Dance," "Stella by Starlight" and the phenomenal "Love for Sale"), tosses in a particularly progressive 1955 track by the trumpeter's original quintet ("Little Melonae") and as a result earns a place right alongside MILESTONES and KIND OF BLUE for the superb quality of its music.
Personnel: Miles Davis (tpt); Julian "Cannonball" Adderley (as); John Coltrane (ts); Bill Evans (p); Paul Chambers (b); Jimmy Cobb (d) Red Garland (p); Philly Joe Jones (d).

tracklist:
01. On Green Dolphin Street
02. Fran-Dance
03. Stella By Starlight
04. Love For Sale
05. Little Melonae

Exact Audio Copy V0.99 prebeta 5 from 4. May 2009

EAC extraction logfile from 23. January 2013, 21:16

Miles Davis / 1958 Miles

Used drive : PLEXTOR DVDR PX-L890SA Adapter: 6 ID: 0

Read mode : Secure
Utilize accurate stream : Yes
Defeat audio cache : Yes
Make use of C2 pointers : No

Read offset correction : 6
Overread into Lead-In and Lead-Out : No
Fill up missing offset samples with silence : Yes
Delete leading and trailing silent blocks : No
Null samples used in CRC calculations : Yes
Used interface : Native Win32 interface for Win NT & 2000
Gap handling : Appended to previous track

Used output format : User Defined Encoder
Selected bitrate : 1024 kBit/s
Quality : High
Add ID3 tag : No
Command line compressor : C:\Program Files (x86)\FLAC\flac.exe
Additional command line options : -8 -V -T "ARTIST=%a" -T "TITLE=%t" -T "ALBUM=%g" -T "DATE=%y" -T "TRACKNUMBER=%n" -T "GENRE=%m" -T "COMMENT=EAC FLAC -8" %s


TOC of the extracted CD

Track | Start | Length | Start sector | End sector
––––––––––––––––––––––––––––-
1 | 0:00.00 | 9:51.53 | 0 | 44377
2 | 9:51.53 | 5:51.55 | 44378 | 70757
3 | 15:43.33 | 4:48.00 | 70758 | 92357
4 | 20:31.33 | 11:52.47 | 92358 | 145804
5 | 32:24.05 | 7:20.67 | 145805 | 178871


Track 1

Filename C:\EAC\Miles Davis - The Original Jacket Collection (2006) [37CD]\04. Miles Davis - 1958 Miles (1959) {2006 DSD Japan Mini LP Edition, SICP 1204}\01 - On Green Dolphin Street.wav

Pre-gap length 0:00:02.00

Peak level 100.0 %
Track quality 100.0 %
Test CRC 9657989C
Copy CRC 9657989C
Accurately ripped (confidence 8) [0597FD0B]
Copy OK

Track 2

Filename C:\EAC\Miles Davis - The Original Jacket Collection (2006) [37CD]\04. Miles Davis - 1958 Miles (1959) {2006 DSD Japan Mini LP Edition, SICP 1204}\02 - Fran-Dance.wav

Pre-gap length 0:00:02.77

Peak level 84.7 %
Track quality 100.0 %
Test CRC 6117984E
Copy CRC 6117984E
Accurately ripped (confidence 9) [15A75939]
Copy OK

Track 3

Filename C:\EAC\Miles Davis - The Original Jacket Collection (2006) [37CD]\04. Miles Davis - 1958 Miles (1959) {2006 DSD Japan Mini LP Edition, SICP 1204}\03 - Stella By Starlight.wav

Pre-gap length 0:00:02.77

Peak level 100.0 %
Track quality 100.0 %
Test CRC 74A273C7
Copy CRC 74A273C7
Accurately ripped (confidence 9) [62771D7B]
Copy OK

Track 4

Filename C:\EAC\Miles Davis - The Original Jacket Collection (2006) [37CD]\04. Miles Davis - 1958 Miles (1959) {2006 DSD Japan Mini LP Edition, SICP 1204}\04 - Love For Sale.wav

Pre-gap length 0:00:03.10

Peak level 97.7 %
Track quality 100.0 %
Test CRC FD200C68
Copy CRC FD200C68
Accurately ripped (confidence 9) [C8794E1A]
Copy OK

Track 5

Filename C:\EAC\Miles Davis - The Original Jacket Collection (2006) [37CD]\04. Miles Davis - 1958 Miles (1959) {2006 DSD Japan Mini LP Edition, SICP 1204}\05 - Little Melonae.wav

Pre-gap length 0:00:02.90

Peak level 100.0 %
Track quality 100.0 %
Test CRC A8597560
Copy CRC A8597560
Accurately ripped (confidence 8) [78D44CFB]
Copy OK


All tracks accurately ripped

No errors occurred

End of status report


Miles Davis - The Original Jacket Collection (2006) [30 Albums, 37 CDs] {DSD Japan Mini LP Analog Collection} (part 1of6)



–––––––––––––––––––––
Miles Davis - The Original Jacket Collection (2006) [30 Albums, 37 CDs] {DSD Japan Mini LP Analog Collection} (part 1of6)

Miles Davis - Porgy And Bess (1958) {2006 DSD Japan Mini LP Edition}
EAC rip (secure mode) | FLAC (tracks)+CUE+LOG -> 297 Mb | MP3 @320 -> 121 Mb | Artwork
© 2006 Sony Music Japan / Columbia | SICP 1205 | DSD | HQD High Quality Disc

Of all Gil Evans' orchestral scores for soulmate Miles Davis, PORGY AND BESS is his richest and most ambitious–a watershed of modern jazz harmony which served to secure Davis' pop star stature and define his brooding mystique. Inevitably, even non-jazz listeners own a copy of PORGY AND BESS or SKETCHES OF SPAIN.

Like MILES AHEAD, Evans' band on PORGY AND BESS de-emphasized the traditional reed section in favor of a tuba, three French horns, two flutes and two saxophones. The resulting chords and overtones are dark, alluring and mysterious. Thus the opening brass-cymbal bluster of "The Buzzard Song" gives way to a mid-eastern carpet of flutes and deep brass as Davis' poignant trumpet speaks in split tones and yearning cadences, bursting with blues feeling; a tuba soon picks up the theme as muted trumpets are followed by tolling trombone/French horn chords.

tracklist:
01. Buzzard Song
02. Bess, You Is My Woman Now
03. Gone
04. Gone, Gone, Gone
05. Summertime
06. Bess, Oh Where's My Bess
07. Prayer (Oh Doctor Jesus)
08. Fishermen, Strawberry and Devil Crab
09. My Man's Gone Now
10. It Ain't Necessarily So
11. Here Come de Honey Man
12. I Loves You, Porgy
13. There's a Boat That's Leaving Soon For New York

Exact Audio Copy V0.99 prebeta 5 from 4. May 2009

EAC extraction logfile from 20. January 2013, 2:37

Miles Davis / Porgy And Bess

Used drive : PLEXTOR DVDR PX-L890SA Adapter: 6 ID: 0

Read mode : Secure
Utilize accurate stream : Yes
Defeat audio cache : Yes
Make use of C2 pointers : No

Read offset correction : 6
Overread into Lead-In and Lead-Out : No
Fill up missing offset samples with silence : Yes
Delete leading and trailing silent blocks : No
Null samples used in CRC calculations : Yes
Used interface : Native Win32 interface for Win NT & 2000
Gap handling : Appended to previous track

Used output format : User Defined Encoder
Selected bitrate : 1024 kBit/s
Quality : High
Add ID3 tag : No
Command line compressor : C:\Program Files (x86)\FLAC\flac.exe
Additional command line options : -8 -V -T "ARTIST=%a" -T "TITLE=%t" -T "ALBUM=%g" -T "DATE=%y" -T "TRACKNUMBER=%n" -T "GENRE=%m" -T "COMMENT=EAC FLAC -8" %s


TOC of the extracted CD

Track | Start | Length | Start sector | End sector
––––––––––––––––––––––––––––-
1 | 0:00.00 | 4:09.21 | 0 | 18695
2 | 4:09.21 | 5:12.38 | 18696 | 42133
3 | 9:21.59 | 3:38.49 | 42134 | 58532
4 | 13:00.33 | 2:05.21 | 58533 | 67928
5 | 15:05.54 | 3:20.74 | 67929 | 83002
6 | 18:26.53 | 4:31.07 | 83003 | 103334
7 | 22:57.60 | 4:42.15 | 103335 | 124499
8 | 27:40.00 | 4:07.28 | 124500 | 143052
9 | 31:47.28 | 6:20.40 | 143053 | 171592
10 | 38:07.68 | 4:25.48 | 171593 | 191515
11 | 42:33.41 | 1:23.46 | 191516 | 197786
12 | 43:57.12 | 3:43.25 | 197787 | 214536
13 | 47:40.37 | 3:24.34 | 214537 | 229870


Track 1

Filename C:\EAC\Miles Davis - The Original Jacket Collection (2006) [37CD]\05. Miles Davis - Porgy And Bess (1958) {2006 DSD Japan Mini LP Edition, SICP 1205}\01 - The Buzzard Song.wav

Pre-gap length 0:00:02.00

Peak level 60.2 %
Track quality 100.0 %
Test CRC 379B4AC6
Copy CRC 379B4AC6
Accurately ripped (confidence 10) [F52EF43C]
Copy OK

Track 2

Filename C:\EAC\Miles Davis - The Original Jacket Collection (2006) [37CD]\05. Miles Davis - Porgy And Bess (1958) {2006 DSD Japan Mini LP Edition, SICP 1205}\02 - Bess, You Is My Woman Now.wav

Pre-gap length 0:00:02.54

Peak level 41.9 %
Track quality 100.0 %
Test CRC 7B2883DE
Copy CRC 7B2883DE
Accurately ripped (confidence 10) [F76663F1]
Copy OK

Track 3

Filename C:\EAC\Miles Davis - The Original Jacket Collection (2006) [37CD]\05. Miles Davis - Porgy And Bess (1958) {2006 DSD Japan Mini LP Edition, SICP 1205}\03 - Gone.wav

Pre-gap length 0:00:01.81

Peak level 62.1 %
Track quality 100.0 %
Test CRC CED944CE
Copy CRC CED944CE
Accurately ripped (confidence 10) [D311151F]
Copy OK

Track 4

Filename C:\EAC\Miles Davis - The Original Jacket Collection (2006) [37CD]\05. Miles Davis - Porgy And Bess (1958) {2006 DSD Japan Mini LP Edition, SICP 1205}\04 - Gone, Gone, Gone.wav

Peak level 46.8 %
Track quality 100.0 %
Test CRC 99538823
Copy CRC 99538823
Accurately ripped (confidence 10) [3C5CCE1D]
Copy OK

Track 5

Filename C:\EAC\Miles Davis - The Original Jacket Collection (2006) [37CD]\05. Miles Davis - Porgy And Bess (1958) {2006 DSD Japan Mini LP Edition, SICP 1205}\05 - Summertime.wav

Pre-gap length 0:00:01.58

Peak level 45.7 %
Track quality 100.0 %
Test CRC F066A9CD
Copy CRC F066A9CD
Accurately ripped (confidence 10) [339BD927]
Copy OK

Track 6

Filename C:\EAC\Miles Davis - The Original Jacket Collection (2006) [37CD]\05. Miles Davis - Porgy And Bess (1958) {2006 DSD Japan Mini LP Edition, SICP 1205}\06 - Bess, Oh Where's My Bess.wav

Pre-gap length 0:00:21.88

Peak level 66.6 %
Track quality 100.0 %
Test CRC 96F18959
Copy CRC 96F18959
Accurately ripped (confidence 10) [C66A6C02]
Copy OK

Track 7

Filename C:\EAC\Miles Davis - The Original Jacket Collection (2006) [37CD]\05. Miles Davis - Porgy And Bess (1958) {2006 DSD Japan Mini LP Edition, SICP 1205}\07 - Prayer.wav

Pre-gap length 0:00:01.30

Peak level 65.4 %
Track quality 100.0 %
Test CRC 62313377
Copy CRC 62313377
Accurately ripped (confidence 10) [AE5D1543]
Copy OK

Track 8

Filename C:\EAC\Miles Davis - The Original Jacket Collection (2006) [37CD]\05. Miles Davis - Porgy And Bess (1958) {2006 DSD Japan Mini LP Edition, SICP 1205}\08 - Fisherman, Strawberry And Devil Crab.wav

Pre-gap length 0:00:01.64

Peak level 39.2 %
Track quality 99.9 %
Test CRC 2DA9C6D7
Copy CRC 2DA9C6D7
Accurately ripped (confidence 10) [60447752]
Copy OK

Track 9

Filename C:\EAC\Miles Davis - The Original Jacket Collection (2006) [37CD]\05. Miles Davis - Porgy And Bess (1958) {2006 DSD Japan Mini LP Edition, SICP 1205}\09 - My Man's Gone Now.wav

Peak level 60.0 %
Track quality 99.9 %
Test CRC B6CFF75C
Copy CRC B6CFF75C
Accurately ripped (confidence 10) [E36283E3]
Copy OK

Track 10

Filename C:\EAC\Miles Davis - The Original Jacket Collection (2006) [37CD]\05. Miles Davis - Porgy And Bess (1958) {2006 DSD Japan Mini LP Edition, SICP 1205}\10 - It Ain't Necessarilly So.wav

Pre-gap length 0:00:01.38

Peak level 63.2 %
Track quality 99.9 %
Test CRC 71E5936B
Copy CRC 71E5936B
Accurately ripped (confidence 10) [8A173A8C]
Copy OK

Track 11

Filename C:\EAC\Miles Davis - The Original Jacket Collection (2006) [37CD]\05. Miles Davis - Porgy And Bess (1958) {2006 DSD Japan Mini LP Edition, SICP 1205}\11 - Here Come De Honey Man.wav

Pre-gap length 0:00:01.50

Peak level 40.5 %
Track quality 100.0 %
Test CRC 55541DBA
Copy CRC 55541DBA
Accurately ripped (confidence 10) [374FA865]
Copy OK

Track 12

Filename C:\EAC\Miles Davis - The Original Jacket Collection (2006) [37CD]\05. Miles Davis - Porgy And Bess (1958) {2006 DSD Japan Mini LP Edition, SICP 1205}\12 - I Loves You, Porgy.wav

Pre-gap length 0:00:01.94

Peak level 48.5 %
Track quality 100.0 %
Test CRC A5818542
Copy CRC A5818542
Accurately ripped (confidence 10) [21AA3DC6]
Copy OK

Track 13

Filename C:\EAC\Miles Davis - The Original Jacket Collection (2006) [37CD]\05. Miles Davis - Porgy And Bess (1958) {2006 DSD Japan Mini LP Edition, SICP 1205}\13 - There's A Boat That's Leaving Soon For New York.wav

Pre-gap length 0:00:02.80

Peak level 61.6 %
Track quality 100.0 %
Test CRC 100BF2FC
Copy CRC 100BF2FC
Accurately ripped (confidence 2) [4FF41459]
Copy OK


All tracks accurately ripped

No errors occurred

End of status report


Miles Davis - The Original Jacket Collection (2006) [30 Albums, 37 CDs] {DSD Japan Mini LP Analog Collection} (part 1of6)
Miles Davis - 'Round About Midnight (1956) {2006 DSD Japan Mini LP Edition Analog Collection SICP 1201}

Nitroflare

Miles Davis - Miles Ahead (1957) {2006 DSD Japan Mini LP Edition Analog Collection SICP 1202}

Nitroflare

Miles Davis - Milestones (1958) {2006 DSD Japan Mini LP Edition Analog Collection SICP 1203}

Nitroflare

Miles Davis - 1958 Miles (1958) {2006 DSD Japan Mini LP Edition Analog Collection SICP 1204}

Nitroflare

Miles Davis - Porgy And Bess (1958) {2006 DSD Japan Mini LP Edition Analog Collection SICP 1205}

Nitroflare