Subcategories

Mehri Maftun – Music from Afghan Badakhshan (2005)

Posted By: d'Avignon
Mehri Maftun – Music from Afghan Badakhshan (2005)

Mehri Maftun – Music from Afghan Badakhshan (2005)
Ethnic/Folk | FLAC lossless | cuesheets+log | covers+booklet | 1h06m12s | 447mb
Label: PAN Records | cat. no. PAN 2105


Folk music from Afghanistan’s poorest region Badakhshan, where many years of war and the subsequent reign of the Taliban made it very difficult – and even dangerous - for professional musicians to keep on doing their job.

Tracks:

01. Wasma bar abru mazan [0:04:51.36]
02. Khâne lab-e Bahrak [0:04:44.57]
03. Chârabâghu boland, Quad-e hhoshnâm dâri [0:06:16.49]
04. Ey hai shirine jân, Laylâ [0:06:21.66]
05. Dast dar sorâkh bari, 'Ahd wa paynâm [0:06:39.93]
06. Toshna-ye abem shoda [0:03:23.69]
07. Narges, Chopâne budi [0:06:57.30]
08. Man âsheq-e tu [0:05:28.58]
09. Dar khyâl-e ishq-e khubân [0:03:39.96]
10. Doshina shabe, Dar dilam [0:09:11.86]
11. Dar-e maktub-e man begshâ, Gar gah mastum [0:08:43.45]

Performers:

Mehri Maftun – vocals, dambura (fretless two-stringed lute)
Abdul Aziz Jan – ghijak (two-stringed spike fiddle), background vocals
Abdul Salam – tablak (vase drum)

Exact Audio Copy V1.0 beta 3 from 29. August 2011

EAC extraction logfile from 10. February 2013, 21:21

Mehri Maftun / Music from Afghan Badakhshan

Used drive : TSSTcorpCDDVDW SH-216AB Adapter: 1 ID: 0

Read mode : Secure
Utilize accurate stream : Yes
Defeat audio cache : Yes
Make use of C2 pointers : No

Read offset correction : 6
Overread into Lead-In and Lead-Out : No
Fill up missing offset samples with silence : Yes
Delete leading and trailing silent blocks : No
Null samples used in CRC calculations : Yes
Used interface : Native Win32 interface for Win NT & 2000
Gap handling : Appended to previous track

Used output format : User Defined Encoder
Selected bitrate : 768 kBit/s
Quality : High
Add ID3 tag : No
Command line compressor : C:\Program Files (x86)\Exact Audio Copy\FLAC\FLAC.EXE
Additional command line options : -6 -V -T "ARTIST=%artist%" -T "TITLE=%title%" -T "ALBUM=%albumtitle%" -T "DATE=%year%" -T "TRACKNUMBER=%tracknr%" -T "GENRE=%genre%" -T "COMMENT=%comment%" -T "BAND=%albuminterpret%" -T "ALBUMARTIST=%albuminterpret%" -T "COMPOSER=%composer%" %haslyrics%–tag-from-file=LYRICS="%lyricsfile%"%haslyrics% -T "DISCNUMBER=%cdnumber%" -T "TOTALDISCS=%totalcds%" -T "TOTALTRACKS=%numtracks%" %hascover%–picture="%coverfile%"%hascover% %source% -o %dest%


TOC of the extracted CD

Track | Start | Length | Start sector | End sector
––––––––––––––––––––––––––––-
1 | 0:00.00 | 4:51.27 | 0 | 21851
2 | 4:51.27 | 4:44.43 | 21852 | 43194
3 | 9:35.70 | 6:16.37 | 43195 | 71431
4 | 15:52.32 | 6:21.50 | 71432 | 100056
5 | 22:14.07 | 6:39.70 | 100057 | 130051
6 | 28:54.02 | 3:23.52 | 130052 | 145328
7 | 32:17.54 | 6:57.23 | 145329 | 176626
8 | 39:15.02 | 5:28.44 | 176627 | 201270
9 | 44:43.46 | 3:39.72 | 201271 | 217767
10 | 48:23.43 | 9:11.65 | 217768 | 259157
11 | 57:35.33 | 8:43.34 | 259158 | 298416


Track 1

Filename C:\Users\astarte\03. POST\mehri maftun\01. Wasma bar abru mazan.wav

Pre-gap length 0:00:02.00

Peak level 96.3 %
Extraction speed 1.7 X
Track quality 100.0 %
Copy CRC 87BDB2F7
Track not present in AccurateRip database
Copy OK

Track 2

Filename C:\Users\astarte\03. POST\mehri maftun\02. Khâne lab-e Bahrak.wav

Pre-gap length 0:00:02.00

Peak level 94.4 %
Extraction speed 2.0 X
Track quality 100.0 %
Copy CRC 1BD005BF
Track not present in AccurateRip database
Copy OK

Track 3

Filename C:\Users\astarte\03. POST\mehri maftun\03. Chârabâghu boland, Quad-e hhoshnâm dâri.wav

Pre-gap length 0:00:02.00

Peak level 94.4 %
Extraction speed 2.1 X
Track quality 99.9 %
Copy CRC 88CEFC5F
Track not present in AccurateRip database
Copy OK

Track 4

Filename C:\Users\astarte\03. POST\mehri maftun\04. Ey hai shirine jân, Laylâ.wav

Pre-gap length 0:00:02.00

Peak level 94.4 %
Extraction speed 2.5 X
Track quality 100.0 %
Copy CRC BAB695FA
Track not present in AccurateRip database
Copy OK

Track 5

Filename C:\Users\astarte\03. POST\mehri maftun\05. Dast dar sorâkh bari, 'Ahd wa paynâm.wav

Pre-gap length 0:00:02.00

Peak level 94.4 %
Extraction speed 2.7 X
Track quality 100.0 %
Copy CRC F180124E
Track not present in AccurateRip database
Copy OK

Track 6

Filename C:\Users\astarte\03. POST\mehri maftun\06. Toshna-ye abem shoda.wav

Pre-gap length 0:00:02.00

Peak level 94.4 %
Extraction speed 2.6 X
Track quality 100.0 %
Copy CRC 81068DF2
Track not present in AccurateRip database
Copy OK

Track 7

Filename C:\Users\astarte\03. POST\mehri maftun\07. Narges, Chopâne budi.wav

Pre-gap length 0:00:02.00

Peak level 94.4 %
Extraction speed 2.8 X
Track quality 99.9 %
Copy CRC 10CE8C28
Track not present in AccurateRip database
Copy OK

Track 8

Filename C:\Users\astarte\03. POST\mehri maftun\08. Man âsheq-e tu.wav

Pre-gap length 0:00:02.00

Peak level 94.4 %
Extraction speed 3.1 X
Track quality 100.0 %
Copy CRC ADBD9A47
Track not present in AccurateRip database
Copy OK

Track 9

Filename C:\Users\astarte\03. POST\mehri maftun\09. Dar khyâl-e ishq-e khubân.wav

Pre-gap length 0:00:02.00

Peak level 94.4 %
Extraction speed 3.1 X
Track quality 100.0 %
Copy CRC F6205C2A
Track not present in AccurateRip database
Copy OK

Track 10

Filename C:\Users\astarte\03. POST\mehri maftun\10. Doshina shabe, Dar dilam.wav

Pre-gap length 0:00:02.00

Peak level 94.4 %
Extraction speed 3.6 X
Track quality 100.0 %
Copy CRC 330934CD
Track not present in AccurateRip database
Copy OK

Track 11

Filename C:\Users\astarte\03. POST\mehri maftun\11. Dar-e maktub-e man begshâ, Gar gah mastum.wav

Pre-gap length 0:00:02.00

Peak level 94.4 %
Extraction speed 3.8 X
Track quality 100.0 %
Copy CRC 6DB0829D
Track not present in AccurateRip database
Copy OK


None of the tracks are present in the AccurateRip database

No errors occurred

End of status report

==== Log checksum 30813E4BFA5FA1A83CC50A197E96AF219AFBCC1F2ECF7C20DE6D9EF44F54B4D3 ====