Subcategories

Mel Torme - In a Soulful Mood (2005)

Posted By: stfine
Mel Torme - In a Soulful Mood (2005)

Mel Torme - In a Soulful Mood (2005)
APE image+cue+log+scans | 00:48:53 | 190 MB (+3%)
Vocal Jazz | Label: Music Club/Demon Music MCCD579

Mel Torme was known in his early years for his voice's rich, smoky-hued texture. Indeed, such was the smooth, flawless nature of his vocal delivery that he almost seemed to caress the melody of each song he sang. He continues to be regarded as one of the pre-eminent singers of the latter half of the 20th century. Significantly his influence can still be heard, most notably in the music provided by today's new generation of jazz crooners. "In A Soulful Mood" was originally recorded in 1956 in Hollywood for the legendary Bethlehem label. Torme's smooth, soft vocal timbre can be heard on this fantastic 14 track album.

Tracklist

1. I've Got It Bad And That Ain't Good [03:23]
2. Till The Clouds Roll By [02:54]
3. Isn't It Romantic [03:41]
4. I Know Why [03:50]
5. All This And Heaven [03:39]
6. How Long Had This Been Going On [03:33]
7. Polka Dots And Moonbeams [03:56]
8. You Leave Me Breathless [03:23]
9. Million Dollar Baby [03:43]
10. Wonderful One [03:17]
11. It's A Blue World [03:45]
12. Stay As Sweet As You Are [03:22]
13. Cheek To Cheek [02:59]
14. Let's Call The Whole Thing Off [03:28]

Total time 00:48:53

Exact Audio Copy V0.99 prebeta 5 from 4. May 2009

EAC extraction logfile from 19. July 2010, 19:35

Mel Torme / In a Soulful mood

Used drive : TSSTcorpDVD+-RW TS-U633A Adapter: 0 ID: 1

Read mode : Secure
Utilize accurate stream : Yes
Defeat audio cache : Yes
Make use of C2 pointers : No

Read offset correction : 6
Overread into Lead-In and Lead-Out : No
Fill up missing offset samples with silence : Yes
Delete leading and trailing silent blocks : No
Null samples used in CRC calculations : Yes
Used interface : Native Win32 interface for Win NT & 2000

Used output format : Internal WAV Routines
Sample format : 44.100 Hz; 16 Bit; Stereo


TOC of the extracted CD

Track | Start | Length | Start sector | End sector
––––––––––––––––––––––––––––-
1 | 0:00.00 | 3:23.73 | 0 | 15297
2 | 3:23.73 | 2:54.71 | 15298 | 28418
3 | 6:18.69 | 3:41.11 | 28419 | 45004
4 | 10:00.05 | 3:50.60 | 45005 | 62314
5 | 13:50.65 | 3:39.32 | 62315 | 78771
6 | 17:30.22 | 3:33.11 | 78772 | 94757
7 | 21:03.33 | 3:56.41 | 94758 | 112498
8 | 24:59.74 | 3:23.56 | 112499 | 127779
9 | 28:23.55 | 3:43.26 | 127780 | 144530
10 | 32:07.06 | 3:17.02 | 144531 | 159307
11 | 35:24.08 | 3:45.44 | 159308 | 176226
12 | 39:09.52 | 3:22.16 | 176227 | 191392
13 | 42:31.68 | 2:59.64 | 191393 | 204881
14 | 45:31.57 | 3:28.47 | 204882 | 220528


Range status and errors

Selected range

Filename C:\_Arc\EAC_Out\Mel Torme - In a Soulful mood\Mel Torme - In a Soulful mood.wav

Peak level 98.7 %
Range quality 100.0 %
Copy CRC FADBCEFD
Copy OK

No errors occurred


AccurateRip summary

Track 1 not present in database
Track 2 not present in database
Track 3 not present in database
Track 4 not present in database
Track 5 not present in database
Track 6 not present in database
Track 7 not present in database
Track 8 not present in database
Track 9 not present in database
Track 10 not present in database
Track 11 not present in database
Track 12 not present in database
Track 13 not present in database
Track 14 not present in database

None of the tracks are present in the AccurateRip database

End of status report

Спасибо p a n e u g e n e!

Mel Torme - In a Soulful Mood (2005)

Tip: use JDownloader to simplify downloading.

(fileserve.com)
Download part 1 | Download part 2

(hotfile.com)
Download part 1 | Download part 2

(filesonic.com)
Download part 1 | Download part 2



Enjoy my blog >