Subcategories

Metallica - Garage Inc. (1998) [2 CDs - Japan 1st Press # SRCS 8809~10]

Posted By: Shar'EmAll
Metallica - Garage Inc. (1998) [2 CDs - Japan 1st Press # SRCS 8809~10]

Metallica - Garage Inc. (1998) [2CDs - Japan 1st Press]
EAC | FLAC-IMG+CUE+LOG | 136:38 min | Complete Scans | ~ 1096 MB
The First Japanese Pressings | Sony Records (Japan) # SRCS 8809~10

Garage Inc. is a tribute album by American heavy metal band Metallica, released in November 1998. t includes recorded cover songs, all of their B-side covers released up to that point, and the entire The $5.98 E.P.: Garage Days Re-Revisited, which had gone out of print since its original release in 1987. The title is a combination of Garage Days Re-Revisited and their song "Damage, Inc." Over 2.5 million copies have been sold in the US as certified 5x Platinum by the RIAA.


For many years, Metallica's 1987 EP Garage Days Re-Revisited was the most sought-after item in their catalog; it was constantly bootlegged in the '90s, and often supplemented by a host of covers Metallica had released on singles and compilations throughout the years. By 1998, the band had understandably grown frustrated with this situation and decided to confront the problem head-on by reissuing all these rarities. Savvy businessmen that they are, they also realized they needed to give hardcore fans who already owned all the covers a reason to purchase the new set — hence, the expansion of the Garage Days EP to the double-disc blowout Garage, Inc. The second disc's rarities are balanced by the first disc's new covers, the bulk of which were recorded following the Reload tour. It shouldn't come as a surprise that these covers recall the blooze 'n' boogie heavy rock of the Loads, but what is a surprise is that Metallica seems to have found their footing in this style through other people's songs. Whether it's Bob Seger, Blue Öyster Cult, Thin Lizzy, Nick Cave, or the all-star jam on Lynyrd Skynyrd's "Tuesday's Gone," the band effortlessly makes the songs seem like their own, through a bizarre mix of respect and ballsy irreverence. Sure, it may not be nearly as raw as early Metallica, but it is a better listen than either of the Load records. And if raw is what you want, the equally diverse disc two provides all the thrills you could hope for. At one time, it might have seemed a little odd that Metallica would cover Budgie, Diamond Head, the Misfits, and Queen, but if Garage, Inc. proves anything, it's that the group's musical instincts, risks, and sense of humor have made them the greatest metal band of the '80s and '90s.

– Review by Stephen Thomas Erlewine, allmusic com

Tracklist:

DISC ONE
01. Free Speech For The Dumb [Discharge cover]
02. Metallica - It's Electric [Diamond Head cover]
03. Sabbra Cadabra [Black Sabbath cover]
04. Turn The Page [Bob Seger cover]
05. Die, Die My Darling [Misfits cover]
06. Loverman [Nick Cave And The Bad Seeds cover]
07. Mercyful Fate ['82-'83 medly cover]
08. Metallica - Astronomy [Blue Oyster Cult cover]
09. Whiskey In The Jar [Thin Lizzy cover]
10. Metallica - Tuesday's Gone [Lynyrd Skynyrd cover]
11. The More I See [Discharge cover]

DISC TWO
01. Helpless [Diamond Head cover]
02. The Small Hours [Holocaust cover]
03. The Wait [Killing Joke cover]
04. Crash Course In Brain Surgery [Budgie cover]
05. Last Caress / Green Hell [Misfits medley covers]
06. Am I Evil? [Diamond Head cover]
07. Blitzkrieg [Blitzkrieg cover]
08. Breadfan [Budgie cover]
09. The Prince [Diamond Head cover]
10. Stone Cold Crazy [Queen cover]
11. So What [Anti-Nowhere League cover]
12. Killing Time [Sweet Savage cover]
13. Overkill [Motorhead cover]
14. Damage Case [Motorhead cover]
15. Stone Dead Forever [Motorhead cover]
16. Too Late Too Late [Motorhead cover]

Somewhat Produced by Bob Rock with James Hetfield & Lars Ulrich.
New cover songs recorded & mixed from September–October 1998 at The Plant Studios, Sausalito, CA.
Other songs recorded at various times and locations.

- James Hetfield – vocals, rhythm guitar
- Kirk Hammett – lead guitar
- Jason Newsted – bass
- Lars Ulrich – drums, percussion
- Cliff Burton – bass, backing vocals on "Blitzkrieg" and "Am I Evil?"

Original non-remastered Japanese 1st pressed CD.
Manafactured by Sony Music Japan. All thanks goes to Джонни!

Exact Audio Copy V0.99 prebeta 3 from 28. July 2007

Отчёт EAC об извлечении, выполненном 7. марта 2010, 9:17

Metallica / Garage Inc. CD1 (SRCS 8809)

Дисковод: TSSTcorpCDDVDW SH-S202H Adapter: 0 ID: 0

Режим чтения : Достоверность
Использование точного потока : Да
Отключение кэша аудио : Да
Использование указателей C2 : Нет

Коррекция смещения при чтении : 6
Способность читать области Lead-in и Lead-out : Нет
Заполнение пропущенных сэмплов тишиной : Да
Удаление блоков с тишиной в начале и конце : Нет
При вычислениях CRC использовались нулевые сэмплы : Да
Интерфейс : Установленный внешний ASPI-интерфейс

Выходной формат : Внутренние WAV-операции
Формат сэмплов : 44.100 Гц; 16 бит; стерео


TOC извлечённого CD

Трек | Старт | Длительность | Начальный сектор | Конечный сектор
––––––––––––––––––––––––––––––––––-
1 | 0:00.00 | 2:35.27 | 0 | 11651
2 | 2:35.27 | 3:33.70 | 11652 | 27696
3 | 6:09.22 | 6:20.18 | 27697 | 56214
4 | 12:29.40 | 6:06.35 | 56215 | 83699
5 | 18:36.00 | 2:29.20 | 83700 | 94894
6 | 21:05.20 | 7:52.52 | 94895 | 130346
7 | 28:57.72 | 11:11.48 | 130347 | 180719
8 | 40:09.45 | 6:37.35 | 180720 | 210529
9 | 46:47.05 | 5:04.67 | 210530 | 233396
10 | 51:51.72 | 9:05.55 | 233397 | 274326
11 | 60:57.52 | 4:49.28 | 274327 | 296029


Характеристики диапазона извлечения и сообщения об ошибках

Выбранный диапазон

Имя файла C:\Downloads\EAC\Metallica - Garage Inc. CD1.wav

Пиковый уровень 100.0 %
Качество диапазона 100.0 %
CRC теста ED150F00
CRC копии ED150F00
Копирование… OK

Ошибок не произошло


AccurateRip: сводка

Трек 1 точное извлечение (доверие 5) [46E4D36A]
Трек 2 точное извлечение (доверие 5) [E69878C6]
Трек 3 точное извлечение (доверие 5) [0E78B28A]
Трек 4 точное извлечение (доверие 5) [5F52C3B2]
Трек 5 точное извлечение (доверие 5) [F6BB211F]
Трек 6 точное извлечение (доверие 5) [C60D6374]
Трек 7 точное извлечение (доверие 5) [CA168806]
Трек 8 точное извлечение (доверие 5) [3B88BDE7]
Трек 9 точное извлечение (доверие 5) [C50EC095]
Трек 10 точное извлечение (доверие 5) [E4C2AEC4]
Трек 11 точное извлечение (доверие 5) [CAC71C89]

Все треки извлечены точно

Конец отчёта

***********************************

Exact Audio Copy V0.99 prebeta 3 from 28. July 2007

Отчёт EAC об извлечении, выполненном 7. марта 2010, 9:47

Metallica / Garage Inc. CD2 (SRCS 8810)

Дисковод: TSSTcorpCDDVDW SH-S202H Adapter: 0 ID: 0

Режим чтения : Достоверность
Использование точного потока : Да
Отключение кэша аудио : Да
Использование указателей C2 : Нет

Коррекция смещения при чтении : 6
Способность читать области Lead-in и Lead-out : Нет
Заполнение пропущенных сэмплов тишиной : Да
Удаление блоков с тишиной в начале и конце : Нет
При вычислениях CRC использовались нулевые сэмплы : Да
Интерфейс : Установленный внешний ASPI-интерфейс

Выходной формат : Внутренние WAV-операции
Формат сэмплов : 44.100 Гц; 16 бит; стерео


TOC извлечённого CD

Трек | Старт | Длительность | Начальный сектор | Конечный сектор
––––––––––––––––––––––––––––––––––-
1 | 0:00.00 | 6:38.27 | 0 | 29876
2 | 6:38.27 | 6:43.15 | 29877 | 60116
3 | 13:21.42 | 4:55.23 | 60117 | 82264
4 | 18:16.65 | 3:10.25 | 82265 | 96539
5 | 21:27.15 | 3:29.60 | 96540 | 112274
6 | 24:57.00 | 7:50.10 | 112275 | 147534
7 | 32:47.10 | 3:36.60 | 147535 | 163794
8 | 36:23.70 | 5:41.30 | 163795 | 189399
9 | 42:05.25 | 4:25.40 | 189400 | 209314
10 | 46:30.65 | 2:17.47 | 209315 | 219636
11 | 48:48.37 | 3:08.72 | 219637 | 233808
12 | 51:57.34 | 3:03.53 | 233809 | 247586
13 | 55:01.12 | 4:04.73 | 247587 | 265959
14 | 59:06.10 | 3:40.22 | 265960 | 282481
15 | 62:46.32 | 4:52.03 | 282482 | 304384
16 | 67:38.35 | 3:12.40 | 304385 | 318824


Характеристики диапазона извлечения и сообщения об ошибках

Выбранный диапазон

Имя файла C:\Downloads\EAC\Metallica - Garage Inc. CD2.wav

Пиковый уровень 100.0 %
Качество диапазона 100.0 %
CRC теста B04C1847
CRC копии B04C1847
Копирование… OK

Ошибок не произошло


AccurateRip: сводка

Трек 1 точное извлечение (доверие 2) [4D20727D]
Трек 2 точное извлечение (доверие 2) [974D766E]
Трек 3 точное извлечение (доверие 2) [0B6B7E60]
Трек 4 точное извлечение (доверие 2) [ACBC5D1A]
Трек 5 точное извлечение (доверие 2) [406930AD]
Трек 6 точное извлечение (доверие 2) [C9E49442]
Трек 7 точное извлечение (доверие 2) [801F51E0]
Трек 8 точное извлечение (доверие 2) [55FBCFD7]
Трек 9 точное извлечение (доверие 2) [F6D58378]
Трек 10 точное извлечение (доверие 2) [9575C1FF]
Трек 11 точное извлечение (доверие 2) [9E02C433]
Трек 12 точное извлечение (доверие 2) [69DD6894]
Трек 13 точное извлечение (доверие 2) [E325AB41]
Трек 14 точное извлечение (доверие 2) [88E32361]
Трек 15 точное извлечение (доверие 2) [0A47FA91]
Трек 16 точное извлечение (доверие 2) [A937AACF]

Все треки извлечены точно

Конец отчёта

DOWNLOAD: Metallica - Garage Inc. [2 CDs - Japan 1st Press]

SharingMatrix

http://sharingmatrix.com/file/14184829/138MET98JP1.part1.rar
http://sharingmatrix.com/file/14184827/138MET98JP1.part2.rar
http://sharingmatrix.com/file/14184831/138MET98JP1.part3.rar
http://sharingmatrix.com/file/14184833/138MET98JP1.part4.rar
http://sharingmatrix.com/file/14184835/138MET98JP1.part5.rar

http://sharingmatrix.com/file/14184837/138MET98JP2.part1.rar
http://sharingmatrix.com/file/14184839/138MET98JP2.part2.rar
http://sharingmatrix.com/file/14184841/138MET98JP2.part3.rar
http://sharingmatrix.com/file/14184843/138MET98JP2.part4.rar
http://sharingmatrix.com/file/14184845/138MET98JP2.part5.rar

Mirror
http://hotfile.com/dl/57030076/211abad/138MET98JP1.part1.rar
http://hotfile.com/dl/57030077/8e2e544/138MET98JP1.part2.rar
http://hotfile.com/dl/57030078/09747a3/138MET98JP1.part3.rar
http://hotfile.com/dl/57030079/054b994/138MET98JP1.part4.rar
http://hotfile.com/dl/57030080/9a04e9b/138MET98JP1.part5.rar

http://hotfile.com/dl/57030081/dec43f2/138MET98JP2.part1.rar
http://hotfile.com/dl/57030082/cbdb227/138MET98JP2.part2.rar
http://hotfile.com/dl/57030083/5c7153b/138MET98JP2.part3.rar
http://hotfile.com/dl/57030084/ad4e8e0/138MET98JP2.part4.rar
http://hotfile.com/dl/57030085/89a4d96/138MET98JP2.part5.rar

The files are interchangeable. Recovery info has included.

More Metallica in my blog