Subcategories

V.A. - Cheap cigarettes, songs of the South (1996)

Posted By: Speedyclick
V.A. - Cheap cigarettes, songs of the South (1996)

V.A. - Cheap cigarettes, songs of the South (1996)
EAC Rip | FLAC (image & cue & log) & mp3 @ 320 kbps | tracks: 13 | Scans | 43:36 | ~ 282 Mb & 131 Mb
Label: MINOS-EMI | 5% recovery record | Folk, bouzouki

Some of the most beautiful greek "classics" are collected in this rare 1996 album. Grigoris Bithikotsis, Vicky Mosholiou, Haris Alexiou, Manolis Mitsias, Stelios Kazantzidis and other legends will guide you in a promenade through the beauty of quality greek music. Enjoy.

TRACKLIST
01. Vicky Mosholiou - The night (I nihta)
02. Nikos Xylouris - How can I cease talking (Pos na sopaso)
03. Grigoris Bithikotsis - The song of the imigration (To tragoudi tis ksenitias)
04. Vangelis Perpiniadis & Ria Norma - Where can the dream fit (Pou na horesi to oniro)
05. Grigoris Bithikotsis - The time has gone (Pai o keros)
06. Haris Alexiou - Sending greetings to you (Sou stelno heretismata)
07. Vicky Mosholiou - Don't drink water (Min piis nero)
08. Grigoris Bithikotsis - Drapetsona (Drapetsona)
09. Stelios Kazantzidis - When you see me crying (Otan vlepete na kleo)
10. Haris Alexiou - I know you don't love me anymore (To ksero pia den m'agapas)
11. Poly Panou - Bring a cup with wine (Ferte mia koupa me krasi)
12. Manolis Mitsias & Voula Gkika - These hands (Afta ta heria)
13. Stelios Kazantzidis & Marinella - What I love, vanishes (Oti agapao ego petheni)

Exact Audio Copy V1.0 beta 3 from 29. August 2011

EAC extraction logfile from 1. February 2013, 12:32

Various Artists / Tsigara laika tragoudia notia

Used drive : HL-DT-STDVDRAM GH10N Adapter: 1 ID: 1

Read mode : Secure
Utilize accurate stream : Yes
Defeat audio cache : Yes
Make use of C2 pointers : No

Read offset correction : 667
Overread into Lead-In and Lead-Out : No
Fill up missing offset samples with silence : Yes
Delete leading and trailing silent blocks : No
Null samples used in CRC calculations : Yes
Used interface : Native Win32 interface for Win NT & 2000

Used output format : User Defined Encoder
Selected bitrate : 1024 kBit/s
Quality : High
Add ID3 tag : Yes
Command line compressor : C:\Program Files\Exact Audio Copy New\Flac\flac.exe
Additional command line options : -V -5 -T "artist=%artist%" -T "title=%title%" -T "album=%albumtitle%" -T "tracknumber=%tracknr2%" -T "genre=%genre%" -5 %source%


TOC of the extracted CD

Track | Start | Length | Start sector | End sector
––––––––––––––––––––––––––––-
1 | 0:00.32 | 3:27.28 | 32 | 15584
2 | 3:27.60 | 4:23.72 | 15585 | 35381
3 | 7:51.57 | 3:32.03 | 35382 | 51284
4 | 11:23.60 | 3:11.55 | 51285 | 65664
5 | 14:35.40 | 2:41.02 | 65665 | 77741
6 | 17:16.42 | 3:03.13 | 77742 | 91479
7 | 20:19.55 | 3:06.07 | 91480 | 105436
8 | 23:25.62 | 3:42.60 | 105437 | 122146
9 | 27:08.47 | 3:15.10 | 122147 | 136781
10 | 30:23.57 | 2:50.70 | 136782 | 149601
11 | 33:14.52 | 3:49.28 | 149602 | 166804
12 | 37:04.05 | 3:07.02 | 166805 | 180831
13 | 40:11.07 | 3:25.15 | 180832 | 196221


Range status and errors

Selected range

Filename S:\MUSIC\Uploaded\GREEK\Metro 08 - Tsigara laika tragoudia notia\Various Artists - Tsigara laika tragoudia notia.wav

Peak level 97.6 %
Extraction speed 4.9 X
Range quality 99.9 %
Test CRC 441FF741
Copy CRC 441FF741
Copy OK

No errors occurred


AccurateRip summary

Track 1 not present in database
Track 2 not present in database
Track 3 not present in database
Track 4 not present in database
Track 5 not present in database
Track 6 not present in database
Track 7 not present in database
Track 8 not present in database
Track 9 accurately ripped (confidence 2) [C6320D20] (AR v1)
Track 10 not present in database
Track 11 not present in database
Track 12 not present in database
Track 13 not present in database

1 track(s) accurately ripped
12 track(s) not present in the AccurateRip database

Some tracks could not be verified as accurate

End of status report

–– CUETools DB Plugin V2.1.3

[CTDB TOCID: EWz50a_fGkRuQYdbFgUbMqsNTQQ-] disk not present in database, Submit result: discs with pregaps not supported in this protocol version


==== Log checksum F6BD08E5C933B3D832E91A4CFB7B973960F9A9E62C506C1B4DCADEFB9F53856E ====