Subcategories

Mickey Newbury - An American Trilogy (2011) {4CD Set, Saint Cecilia Knows CEC001R rec 1969-1973}

Posted By: ruskaval
Mickey Newbury - An American Trilogy (2011) {4CD Set, Saint Cecilia Knows CEC001R rec 1969-1973}

Mickey Newbury - An American Trilogy (2011) {4CD Set, Saint Cecilia Knows CEC001R rec 1969-1973}
EAC rip (secure mode) | FLAC (tracks)+CUE+LOG -> 903 Mb | MP3 @320 -> 388 Mb
Full Artwork @ 300 dpi (png) -> 101 Mb | 5% repair rar
© 1969-73, 2011 Saint Cecilia Knows / Mountain Retreat | CEC001R
Country / Progressive Country / Singer-Songwriter / Outlaw Country

During his lifetime, Mickey Newbury was always regarded more as a songwriter than as a singer or recording artist. Johnny Cash, Roy Orbison, Linda Ronstadt, Charlie Rich, Tammy Wynette, Willie Nelson, Kenny Rogers, and Joan Baez all recorded his songs. That said, Saint Cecilia Knows (the Newbury estate's label) and Drag City are seeking to change that impression with An American Trilogy. It's a deluxe, limited-edition, four-disc box set collects the albums Looks Like Rain (1969), 'Frisco Mabel Joy (1971), Heaven Help the Child (1973), and a disc of rarities; it contains a poster lyric sheet/map and a 100-page booklet, with Newbury quotes, interviews, and more.
Mickey Newbury - An American Trilogy (2011) {4CD Set, Saint Cecilia Knows CEC001R rec 1969-1973}

The albums, whose tapes were thought lost in a fire, have been pristinely remastered. Looking back, it was a small miracle that Elektra let Newbury make these records at all. Through his shrewdness as a negotiator and his track record as a songwriter, he convinced the label to allow him to make three conceptually linked records. The sound on them is like nothing in country music before or since: they are full of sound effects, spatial ambiences and melodrama, delivered with subtlety and a novelist's attention to detail. The music merged minimal country tropes with Texas songwriter storytelling and Southern gospel, and employed contemporary folk and pop arrangements. Looks Like Rain reveals Newbury’s writing range and production savvy. The sound effects (such as an incessant rain falling throughout) and delicate psychedelic embellishments etch the record in its time, but there is so much silence surrounding "She Even Woke Me Up to Say Goodbye," "33rd of August," and "San Francisco Mabel Joy" that they stun with quiet intensity. Newbury's grainy tenor and elegant phrasing keep the album from descending into desperation. On 'Frisco Mabel Joy, the studio becomes more of a musical instrument. It opens with Newbury's "An American Trilogy" which contains the Civil War-era songs "Dixie," "Battle Hymn of the Republic," and "All My Trials." Elvis may have (over)blown it as a theatrical patriot's anthem, but Newbury's version is restrained and elegiac; as if the promise and hope expressed in those songs has been lost – or even erased – along history's way. It introduces the rest of the album, where rain continues to fall, women continue to depart, and problems mount; the characters in these songs question life metaphorically and literally. In lieu of the opener, it's easy to hear "How I Love Them Old Songs" and "The Future's Not What It Used to Be" are insightful questions to a nation at large. The instrumental interludes, and the depth of emotion in "'Frisco Depo" and "How Many Times (Must the Piper Be Paid for His Song)," are devastating personal narratives. Heaven Help the Child is a progression; it feels more more like a Jimmy Webb record than anything else. Its pop arrangements are more pronounced, but the songs, whether historical tales (the title track, which takes place in 1912) and "Cortelia Clark," broken love songs ("Sweet Memories" and "Good Morning Dear"), or even the lone redemptive paean to romance ("Song for Susan" – Newbury's wife), lose none of their power. The re-recording of "San Francisco Mabel Joy" that closes the disc underscores the personal vision of the songwriter who inhabits each song on these three albums. The rarities disc is just that. It contains demos, unreleased tracks, and a radio performance, and is well worth inclusion. What Newbury displayed on these records was an American life, whose experiences crossed race, class, and even historical boundaries. The set is an essential document that places Newbury in the pantheon of singer/songwriters where he has always belonged.
Mickey Newbury - An American Trilogy (2011) {4CD Set, Saint Cecilia Knows CEC001R rec 1969-1973}


Track Listings

Disc: 1

1. Write a Song a Song/Angeline
2. She Even Woke Me Up to Say Goodbye
3. I Don't Think Much About Her No More
4. T. Total Tommy
5. 33rd of August/When the Baby in My Lady Gets the Blues
6. San Francisco Mable Joy
7. Looks Like Baby's Gone

Disc: 2
1. An American Trilogy
2. How Many Times (Must the Piper Be Paid for His Song)
3. Interlude
4. The Future's Not What It Used to Be
5. Mobile Blue
6. Frisco Depot
7. You're Not My Same Sweet Baby
8. Interlude
9. Remember the Good
10. Swiss Cottage Place
11. How I Love Them Old Songs

Disc: 3
1. Heaven Help the Child
2. Good Morning Dear
3. Sunshine
4. Sweet Memories
5. Why You Been Gone So Long
6. Cortelia Clark
7. Song for Susan
8. San Francisco Mabel Joy

Disc: 4
1. If You Want Me to I'll Go [Demo Version]
2. Sunshine
3. Sad Satin Rhyme
4. WH You Been Gone So Long [Demo Version]
5. I Don't Wanna Rock [Demo Version]
6. Let Me Stay Awhile [Demo Version]
7. Flower Man [Demo Version]
8. Good Morning Dear [Demo Version]
9. On Top of Old Smokey [Demo Version]
10. Interlude: How Man Times (Must the Piper Be Paid for His Song)
11. Better Days
12. How I Love Them Old Songs
13. I Don't Wanna Rock
14. I Don't Want Me No Big City Woman
15. You're Not My Same Sweet Baby

Exact Audio Copy V1.0 beta 3 from 29. August 2011

EAC extraction logfile from 31. October 2014, 15:54

Mickey Newbury / Looks Like Rain

Used drive : HL-DT-STDVD+-RW GT80N Adapter: 0 ID: 0

Read mode : Secure
Utilize accurate stream : Yes
Defeat audio cache : Yes
Make use of C2 pointers : No

Read offset correction : 102
Overread into Lead-In and Lead-Out : No
Fill up missing offset samples with silence : Yes
Delete leading and trailing silent blocks : No
Null samples used in CRC calculations : Yes
Used interface : Native Win32 interface for Win NT & 2000
Gap handling : Appended to previous track

Used output format : User Defined Encoder
Selected bitrate : 128 kBit/s
Quality : High
Add ID3 tag : No
Command line compressor : C:\Program Files (x86)\Exact Audio Copy\FLAC\FLAC.EXE
Additional command line options : -8 -V -T "ARTIST=%artist%" -T "TITLE=%title%" -T "ALBUM=%albumtitle%" -T "DATE=%year%" -T "TRACKNUMBER=%tracknr%" -T "TOTALTRACKS=%numtracks%" -T "GENRE=%genre%" -T "ALBUMARTIST=%albumartist%" -T "ALBUM ARTIST=%albumartist%" -T "COMMENT=EAC Secure Mode, Test & Copy, AccurateRip, FLAC -8" %source%


TOC of the extracted CD

Track | Start | Length | Start sector | End sector
––––––––––––––––––––––––––––-
1 | 0:00.00 | 7:12.25 | 0 | 32424
2 | 7:12.25 | 3:59.03 | 32425 | 50352
3 | 11:11.28 | 5:47.20 | 50353 | 76397
4 | 16:58.48 | 4:08.20 | 76398 | 95017
5 | 21:06.68 | 9:06.50 | 95018 | 136017
6 | 30:13.43 | 6:48.26 | 136018 | 166643
7 | 37:01.69 | 4:29.09 | 166644 | 186827


Track 1

Filename C:\Users\porcupine\Desktop\EAC\01 - Angeline.wav

Pre-gap length 0:00:02.00

Peak level 98.9 %
Extraction speed 1.6 X
Track quality 100.0 %
Test CRC 0FD4777D
Copy CRC 0FD4777D
Accurately ripped (confidence 17) [21427400] (AR v2)
Copy OK

Track 2

Filename C:\Users\porcupine\Desktop\EAC\02 - She Even Woke Me Up to Say Goodbye.wav

Peak level 98.9 %
Extraction speed 1.5 X
Track quality 99.9 %
Test CRC 8E28736D
Copy CRC 8E28736D
Accurately ripped (confidence 17) [6F66107F] (AR v2)
Copy OK

Track 3

Filename C:\Users\porcupine\Desktop\EAC\03 - I Don't Think Much About Her No More.wav

Peak level 97.0 %
Extraction speed 1.8 X
Track quality 99.9 %
Test CRC BDD09A29
Copy CRC BDD09A29
Accurately ripped (confidence 17) [564AEE1B] (AR v2)
Copy OK

Track 4

Filename C:\Users\porcupine\Desktop\EAC\04 - T. Total Tommy.wav

Peak level 98.9 %
Extraction speed 2.0 X
Track quality 100.0 %
Test CRC 114CFE7A
Copy CRC 114CFE7A
Accurately ripped (confidence 17) [E2190DA9] (AR v2)
Copy OK

Track 5

Filename C:\Users\porcupine\Desktop\EAC\05 - When the Baby in My Lady Gets the Blues.wav

Pre-gap length 0:00:04.00

Peak level 98.6 %
Extraction speed 2.4 X
Track quality 100.0 %
Test CRC C56DA6C4
Copy CRC C56DA6C4
Accurately ripped (confidence 17) [A89C1490] (AR v2)
Copy OK

Track 6

Filename C:\Users\porcupine\Desktop\EAC\06 - San Francisco Mable Joy.wav

Peak level 98.5 %
Extraction speed 2.4 X
Track quality 99.9 %
Test CRC 9D025353
Copy CRC 9D025353
Accurately ripped (confidence 17) [A363E702] (AR v2)
Copy OK

Track 7

Filename C:\Users\porcupine\Desktop\EAC\07 - Looks Like Baby's Gone.wav

Peak level 97.7 %
Extraction speed 2.6 X
Track quality 100.0 %
Test CRC 01C4C539
Copy CRC 01C4C539
Accurately ripped (confidence 17) [670DF6D4] (AR v2)
Copy OK


All tracks accurately ripped

No errors occurred

End of status report

==== Log checksum 5F739441ECD34451563E9C79291F44514DBBC978CDF5D7BBD04A59713EF3347B ====
Exact Audio Copy V1.0 beta 3 from 29. August 2011

EAC extraction logfile from 31. October 2014, 16:45

Mickey Newbury / Frisco Mabel Joy

Used drive : HL-DT-STDVD+-RW GT80N Adapter: 0 ID: 0

Read mode : Secure
Utilize accurate stream : Yes
Defeat audio cache : Yes
Make use of C2 pointers : No

Read offset correction : 102
Overread into Lead-In and Lead-Out : No
Fill up missing offset samples with silence : Yes
Delete leading and trailing silent blocks : No
Null samples used in CRC calculations : Yes
Used interface : Native Win32 interface for Win NT & 2000
Gap handling : Appended to previous track

Used output format : User Defined Encoder
Selected bitrate : 128 kBit/s
Quality : High
Add ID3 tag : No
Command line compressor : C:\Program Files (x86)\Exact Audio Copy\FLAC\FLAC.EXE
Additional command line options : -8 -V -T "ARTIST=%artist%" -T "TITLE=%title%" -T "ALBUM=%albumtitle%" -T "DATE=%year%" -T "TRACKNUMBER=%tracknr%" -T "TOTALTRACKS=%numtracks%" -T "GENRE=%genre%" -T "ALBUMARTIST=%albumartist%" -T "ALBUM ARTIST=%albumartist%" -T "COMMENT=EAC Secure Mode, Test & Copy, AccurateRip, FLAC -8" %source%


TOC of the extracted CD

Track | Start | Length | Start sector | End sector
––––––––––––––––––––––––––––-
1 | 0:00.00 | 4:54.37 | 0 | 22086
2 | 4:54.37 | 5:53.74 | 22087 | 48635
3 | 10:48.36 | 1:32.49 | 48636 | 55584
4 | 12:21.10 | 4:30.70 | 55585 | 75904
5 | 16:52.05 | 3:15.59 | 75905 | 90588
6 | 20:07.64 | 3:44.57 | 90589 | 107445
7 | 23:52.46 | 3:51.03 | 107446 | 124773
8 | 27:43.49 | 1:06.34 | 124774 | 129757
9 | 28:50.08 | 3:00.40 | 129758 | 143297
10 | 31:50.48 | 3:12.04 | 143298 | 157701
11 | 35:02.52 | 3:50.35 | 157702 | 174986


Track 1

Filename C:\Users\porcupine\Desktop\EAC\01 - An American Trilogy.wav

Pre-gap length 0:00:02.00

Peak level 97.2 %
Extraction speed 1.3 X
Track quality 99.9 %
Test CRC 04099849
Copy CRC 04099849
Accurately ripped (confidence 22) [C2909001] (AR v2)
Copy OK

Track 2

Filename C:\Users\porcupine\Desktop\EAC\02 - How Many Times Must The Piper Be Paid For His Songs.wav

Peak level 96.2 %
Extraction speed 1.7 X
Track quality 100.0 %
Test CRC 25AB4FE9
Copy CRC 25AB4FE9
Accurately ripped (confidence 22) [88825F1C] (AR v2)
Copy OK

Track 3

Filename C:\Users\porcupine\Desktop\EAC\03 - Interlude.wav

Peak level 93.9 %
Extraction speed 1.1 X
Track quality 99.8 %
Test CRC 8D30AE06
Copy CRC 8D30AE06
Accurately ripped (confidence 22) [46EF90F7] (AR v2)
Copy OK

Track 4

Filename C:\Users\porcupine\Desktop\EAC\04 - The Future's Not What It Used To Be.wav

Peak level 93.4 %
Extraction speed 1.7 X
Track quality 99.9 %
Test CRC F60857B9
Copy CRC F60857B9
Accurately ripped (confidence 22) [EB4FCF4F] (AR v2)
Copy OK

Track 5

Filename C:\Users\porcupine\Desktop\EAC\05 - Mobile Blue.wav

Peak level 97.6 %
Extraction speed 1.9 X
Track quality 100.0 %
Test CRC A9E33D72
Copy CRC A9E33D72
Accurately ripped (confidence 22) [A417DEED] (AR v2)
Copy OK

Track 6

Filename C:\Users\porcupine\Desktop\EAC\06 - Frisco Depot.wav

Pre-gap length 0:00:05.00

Peak level 89.5 %
Extraction speed 1.8 X
Track quality 99.9 %
Test CRC 2BB6A96E
Copy CRC 2BB6A96E
Accurately ripped (confidence 22) [4B3F1895] (AR v2)
Copy OK

Track 7

Filename C:\Users\porcupine\Desktop\EAC\07 - You're Not My Same Sweet Baby.wav

Peak level 88.6 %
Extraction speed 1.9 X
Track quality 99.9 %
Test CRC 7D38CB14
Copy CRC 7D38CB14
Accurately ripped (confidence 22) [4612CF31] (AR v2)
Copy OK

Track 8

Filename C:\Users\porcupine\Desktop\EAC\08 - Interlude.wav

Peak level 97.1 %
Extraction speed 1.6 X
Track quality 100.0 %
Test CRC 6778FFFF
Copy CRC 6778FFFF
Accurately ripped (confidence 22) [F96B5645] (AR v2)
Copy OK

Track 9

Filename C:\Users\porcupine\Desktop\EAC\09 - Remember The Good.wav

Peak level 97.7 %
Extraction speed 2.1 X
Track quality 100.0 %
Test CRC 088EBA96
Copy CRC 088EBA96
Accurately ripped (confidence 22) [789E73F6] (AR v2)
Copy OK

Track 10

Filename C:\Users\porcupine\Desktop\EAC\10 - Swiss Cottage Place.wav

Peak level 90.8 %
Extraction speed 2.3 X
Track quality 100.0 %
Test CRC 68A5A062
Copy CRC 68A5A062
Accurately ripped (confidence 22) [6A90C30B] (AR v2)
Copy OK

Track 11

Filename C:\Users\porcupine\Desktop\EAC\11 - How I Love Those Old Songs.wav

Peak level 96.2 %
Extraction speed 2.4 X
Track quality 100.0 %
Test CRC 0CAA3D83
Copy CRC 0CAA3D83
Accurately ripped (confidence 22) [A8307F4D] (AR v2)
Copy OK


All tracks accurately ripped

No errors occurred

End of status report

==== Log checksum EF18FE53E3F4363DD14EA6507E01F2D9077F7DB94E6C138BACF87CE5FBD7367E ====
Exact Audio Copy V1.0 beta 3 from 29. August 2011

EAC extraction logfile from 31. October 2014, 6:40

Mickey Newbury / Heaven Help the Child

Used drive : HL-DT-STDVD+-RW GT80N Adapter: 0 ID: 0

Read mode : Secure
Utilize accurate stream : Yes
Defeat audio cache : Yes
Make use of C2 pointers : No

Read offset correction : 102
Overread into Lead-In and Lead-Out : No
Fill up missing offset samples with silence : Yes
Delete leading and trailing silent blocks : No
Null samples used in CRC calculations : Yes
Used interface : Native Win32 interface for Win NT & 2000
Gap handling : Appended to previous track

Used output format : User Defined Encoder
Selected bitrate : 128 kBit/s
Quality : High
Add ID3 tag : No
Command line compressor : C:\Program Files (x86)\Exact Audio Copy\FLAC\FLAC.EXE
Additional command line options : -8 -V -T "ARTIST=%artist%" -T "TITLE=%title%" -T "ALBUM=%albumtitle%" -T "DATE=%year%" -T "TRACKNUMBER=%tracknr%" -T "TOTALTRACKS=%numtracks%" -T "GENRE=%genre%" -T "ALBUMARTIST=%albumartist%" -T "ALBUM ARTIST=%albumartist%" -T "COMMENT=EAC Secure Mode, Test & Copy, AccurateRip, FLAC -8" %source%


TOC of the extracted CD

Track | Start | Length | Start sector | End sector
––––––––––––––––––––––––––––-
1 | 0:00.00 | 5:16.26 | 0 | 23725
2 | 5:16.26 | 5:17.14 | 23726 | 47514
3 | 10:33.40 | 4:26.29 | 47515 | 67493
4 | 14:59.69 | 3:31.21 | 67494 | 83339
5 | 18:31.15 | 3:28.72 | 83340 | 99011
6 | 22:00.12 | 5:10.73 | 99012 | 122334
7 | 27:11.10 | 4:31.31 | 122335 | 142690
8 | 31:42.41 | 5:32.19 | 142691 | 167609


Track 1

Filename C:\Users\porcupine\Desktop\EAC\01 - Heaven Help the Child.wav

Pre-gap length 0:00:02.00

Peak level 97.9 %
Extraction speed 2.9 X
Track quality 100.0 %
Test CRC D1E5A87D
Copy CRC D1E5A87D
Accurately ripped (confidence 18) [DF3DAA49] (AR v2)
Copy OK

Track 2

Filename C:\Users\porcupine\Desktop\EAC\02 - Good Morning Dear.wav

Peak level 97.7 %
Extraction speed 3.3 X
Track quality 100.0 %
Test CRC 1FA4531D
Copy CRC 1FA4531D
Accurately ripped (confidence 18) [7AAD17AD] (AR v2)
Copy OK

Track 3

Filename C:\Users\porcupine\Desktop\EAC\03 - Sunshine.wav

Peak level 97.8 %
Extraction speed 3.5 X
Track quality 100.0 %
Test CRC 8497C3FA
Copy CRC 8497C3FA
Accurately ripped (confidence 18) [B7182AE3] (AR v2)
Copy OK

Track 4

Filename C:\Users\porcupine\Desktop\EAC\04 - Sweet Memories.wav

Pre-gap length 0:00:01.00

Peak level 97.6 %
Extraction speed 3.6 X
Track quality 100.0 %
Test CRC 85E11312
Copy CRC 85E11312
Accurately ripped (confidence 18) [1950A9C3] (AR v2)
Copy OK

Track 5

Filename C:\Users\porcupine\Desktop\EAC\05 - Why You Been Gone So Long.wav

Pre-gap length 0:00:01.21

Peak level 95.0 %
Extraction speed 3.8 X
Track quality 100.0 %
Test CRC 4D3DED00
Copy CRC 4D3DED00
Accurately ripped (confidence 18) [D6A0C240] (AR v2)
Copy OK

Track 6

Filename C:\Users\porcupine\Desktop\EAC\06 - Cortelia Clark.wav

Peak level 97.9 %
Extraction speed 4.2 X
Track quality 100.0 %
Test CRC E7A71B16
Copy CRC E7A71B16
Accurately ripped (confidence 18) [7454E4C2] (AR v2)
Copy OK

Track 7

Filename C:\Users\porcupine\Desktop\EAC\07 - Song for Susan.wav

Pre-gap length 0:00:03.00

Peak level 98.0 %
Extraction speed 4.1 X
Track quality 100.0 %
Test CRC 4B44F59D
Copy CRC 4B44F59D
Accurately ripped (confidence 18) [9EF08DAD] (AR v2)
Copy OK

Track 8

Filename C:\Users\porcupine\Desktop\EAC\08 - San Francisco Mabel Joy.wav

Peak level 97.8 %
Extraction speed 4.2 X
Track quality 100.0 %
Test CRC 5C4C7D3A
Copy CRC 5C4C7D3A
Accurately ripped (confidence 18) [B3F0DB4F] (AR v2)
Copy OK


All tracks accurately ripped

No errors occurred

End of status report

==== Log checksum 96AC1B40A7A4DF518561FE8CFBB613456A5129B4E3C978640EB7DE3FE4D12097 ====
Exact Audio Copy V1.0 beta 3 from 29. August 2011

EAC extraction logfile from 31. October 2014, 7:31

Mickey Newbury / Better Days

Used drive : HL-DT-STDVD+-RW GT80N Adapter: 0 ID: 0

Read mode : Secure
Utilize accurate stream : Yes
Defeat audio cache : Yes
Make use of C2 pointers : No

Read offset correction : 102
Overread into Lead-In and Lead-Out : No
Fill up missing offset samples with silence : Yes
Delete leading and trailing silent blocks : No
Null samples used in CRC calculations : Yes
Used interface : Native Win32 interface for Win NT & 2000
Gap handling : Appended to previous track

Used output format : User Defined Encoder
Selected bitrate : 128 kBit/s
Quality : High
Add ID3 tag : No
Command line compressor : C:\Program Files (x86)\Exact Audio Copy\FLAC\FLAC.EXE
Additional command line options : -8 -V -T "ARTIST=%artist%" -T "TITLE=%title%" -T "ALBUM=%albumtitle%" -T "DATE=%year%" -T "TRACKNUMBER=%tracknr%" -T "TOTALTRACKS=%numtracks%" -T "GENRE=%genre%" -T "ALBUMARTIST=%albumartist%" -T "ALBUM ARTIST=%albumartist%" -T "COMMENT=EAC Secure Mode, Test & Copy, AccurateRip, FLAC -8" %source%


TOC of the extracted CD

Track | Start | Length | Start sector | End sector
––––––––––––––––––––––––––––-
1 | 0:00.00 | 3:38.59 | 0 | 16408
2 | 3:38.59 | 3:03.29 | 16409 | 30162
3 | 6:42.13 | 3:16.26 | 30163 | 44888
4 | 9:58.39 | 3:20.16 | 44889 | 59904
5 | 13:18.55 | 1:58.49 | 59905 | 68803
6 | 15:17.29 | 2:28.51 | 68804 | 79954
7 | 17:46.05 | 4:13.42 | 79955 | 98971
8 | 21:59.47 | 2:14.17 | 98972 | 109038
9 | 24:13.64 | 3:30.05 | 109039 | 124793
10 | 27:43.69 | 2:03.18 | 124794 | 134036
11 | 29:47.12 | 3:22.01 | 134037 | 149187
12 | 33:09.13 | 2:10.12 | 149188 | 158949
13 | 35:19.25 | 2:28.50 | 158950 | 170099
14 | 37:48.00 | 2:08.13 | 170100 | 179712
15 | 39:56.13 | 4:50.51 | 179713 | 201513


Track 1

Filename C:\Users\porcupine\Desktop\EAC\01 - If You Want Me to, I'll Go.wav

Pre-gap length 0:00:02.00

Peak level 97.8 %
Extraction speed 1.2 X
Track quality 99.9 %
Test CRC 87765E9A
Copy CRC 87765E9A
Accurately ripped (confidence 16) [C491A6A1] (AR v2)
Copy OK

Track 2

Filename C:\Users\porcupine\Desktop\EAC\02 - Sunshine.wav

Pre-gap length 0:00:02.07

Peak level 93.6 %
Extraction speed 1.5 X
Track quality 100.0 %
Test CRC 88BE9DD0
Copy CRC 88BE9DD0
Accurately ripped (confidence 16) [C6AD1BAE] (AR v2)
Copy OK

Track 3

Filename C:\Users\porcupine\Desktop\EAC\03 - Sad Satin Rhyme.wav

Pre-gap length 0:00:01.67

Peak level 94.4 %
Extraction speed 1.6 X
Track quality 100.0 %
Test CRC CB7EBC5E
Copy CRC CB7EBC5E
Accurately ripped (confidence 16) [91899FE5] (AR v2)
Copy OK

Track 4

Filename C:\Users\porcupine\Desktop\EAC\04 - Why You Been Gone So Long.wav

Pre-gap length 0:00:02.14

Peak level 99.5 %
Extraction speed 1.7 X
Track quality 100.0 %
Test CRC 4EAF2E51
Copy CRC 4EAF2E51
Accurately ripped (confidence 16) [BB9555DF] (AR v2)
Copy OK

Track 5

Filename C:\Users\porcupine\Desktop\EAC\05 - I Don't Wanna Rock.wav

Pre-gap length 0:00:01.67

Peak level 97.8 %
Extraction speed 1.7 X
Track quality 100.0 %
Test CRC 9BBB1B7F
Copy CRC 9BBB1B7F
Accurately ripped (confidence 16) [08B21979] (AR v2)
Copy OK

Track 6

Filename C:\Users\porcupine\Desktop\EAC\06 - Let Me Stay Awhile.wav

Pre-gap length 0:00:03.15

Peak level 97.4 %
Extraction speed 1.8 X
Track quality 100.0 %
Test CRC 7E232806
Copy CRC 7E232806
Accurately ripped (confidence 16) [54F03BFF] (AR v2)
Copy OK

Track 7

Filename C:\Users\porcupine\Desktop\EAC\07 - Flower Man.wav

Pre-gap length 0:00:03.45

Peak level 97.5 %
Extraction speed 2.0 X
Track quality 100.0 %
Test CRC A38B1E96
Copy CRC A38B1E96
Accurately ripped (confidence 16) [5FB2BD01] (AR v2)
Copy OK

Track 8

Filename C:\Users\porcupine\Desktop\EAC\08 - Good Morning Dear.wav

Pre-gap length 0:00:03.60

Peak level 98.9 %
Extraction speed 1.9 X
Track quality 100.0 %
Test CRC 8FC9649D
Copy CRC 8FC9649D
Accurately ripped (confidence 16) [B8DBDDB7] (AR v2)
Copy OK

Track 9

Filename C:\Users\porcupine\Desktop\EAC\09 - On Top of Old Smokey.wav

Pre-gap length 0:00:03.37

Peak level 97.7 %
Extraction speed 2.2 X
Track quality 100.0 %
Test CRC 93FC7BE1
Copy CRC 93FC7BE1
Accurately ripped (confidence 16) [75FAD082] (AR v2)
Copy OK

Track 10

Filename C:\Users\porcupine\Desktop\EAC\10 - How Many Times Must the Piper Be Paid for His Song.wav

Pre-gap length 0:00:03.30

Peak level 93.9 %
Extraction speed 2.0 X
Track quality 100.0 %
Test CRC FAF54C76
Copy CRC FAF54C76
Accurately ripped (confidence 16) [A85604BA] (AR v2)
Copy OK

Track 11

Filename C:\Users\porcupine\Desktop\EAC\11 - Better Days.wav

Pre-gap length 0:00:00.15

Peak level 97.8 %
Extraction speed 2.3 X
Track quality 100.0 %
Test CRC 877C662E
Copy CRC 877C662E
Accurately ripped (confidence 16) [78D3EF3B] (AR v2)
Copy OK

Track 12

Filename C:\Users\porcupine\Desktop\EAC\12 - How I Love Them Old Songs.wav

Pre-gap length 0:00:01.52

Peak level 97.7 %
Extraction speed 1.7 X
Track quality 99.9 %
Test CRC 26132E7A
Copy CRC 26132E7A
Accurately ripped (confidence 16) [E89FB9EE] (AR v2)
Copy OK

Track 13

Filename C:\Users\porcupine\Desktop\EAC\13 - I Don't Wanna Rock.wav

Pre-gap length 0:00:01.24

Peak level 97.8 %
Extraction speed 2.2 X
Track quality 100.0 %
Test CRC A37DA9FE
Copy CRC A37DA9FE
Accurately ripped (confidence 16) [34D6E5D2] (AR v2)
Copy OK

Track 14

Filename C:\Users\porcupine\Desktop\EAC\14 - I Don't Want Me No Big City Woman.wav

Pre-gap length 0:00:01.15

Peak level 97.7 %
Extraction speed 2.2 X
Track quality 100.0 %
Test CRC 59A8755D
Copy CRC 59A8755D
Accurately ripped (confidence 16) [4AE83C87] (AR v2)
Copy OK

Track 15

Filename C:\Users\porcupine\Desktop\EAC\15 - You're Not My Same Sweet Baby.wav

Pre-gap length 0:00:01.26

Peak level 97.7 %
Extraction speed 2.7 X
Track quality 100.0 %
Test CRC C8D5FB0F
Copy CRC C8D5FB0F
Accurately ripped (confidence 16) [AF7CD59A] (AR v2)
Copy OK


All tracks accurately ripped

No errors occurred

End of status report

==== Log checksum 3C2C2F6CC30CC6EB20922ECC97738578C6665A2388EE7428F9D2DA7BEDB93402 ====


Mickey Newbury - An American Trilogy (2011) {4CD Set, Saint Cecilia Knows CEC001R rec 1969-1973}

Mickey Newbury - An American Trilogy (2011) {4CD Set, Saint Cecilia Knows CEC001R rec 1969-1973}

Mickey Newbury - An American Trilogy (2011) {4CD Set, Saint Cecilia Knows CEC001R rec 1969-1973}

Mickey Newbury - An American Trilogy (2011) {4CD Set, Saint Cecilia Knows CEC001R rec 1969-1973}



===