Tags
Language
Tags

Mike Patton & Jean-Claude Vannier - Corpse Flower (2019)

Posted By: delpotro
Mike Patton & Jean-Claude Vannier - Corpse Flower (2019)

Mike Patton & Jean-Claude Vannier - Corpse Flower (2019)
EAC Rip | FLAC (tracks+log+.cue) - 271 Mb | MP3 CBR 320 kbps - 100 Mb | 00:43:15
Avant-Garde Rock | Label: Ipecac Recordings

Mike Patton and renowned French composer Jean-Claude Vannier, who is perhaps best known for his work with Serge Gainsbourg, have come together on the 12-song album, Corpse Flower.

“Jean-Claude and I met while working together on a Gainsbourg retrospective at the Hollywood Bowl in 2011,” explains Patton. “We bonded immediately. I could see he had a dedication and attention to detail that was relentless so the respect I had for him in my mind was magnified in person. We spoke loosely about working together in the future… and it took some time, but after a few years I contacted him and we began to ignite some sparks.”

“I would send Mike rough versions of the songs to get his thoughts, then I’d wait impatiently, staring at the clock, until I received his response,” offers Vannier about the process the duo used to create Corpse Flower. “He made my music awaken with his unique perspective and interpretations of my songs. A formidable vocalist, with a sense of humor, Mike and I created a strong, beautiful and sincere collection of music, as well as a friendship.”
Tracklist:
1. Ballade C.3.3 (03:21)
2. Camion (03:23)
3. Chansons d'amour (04:22)
4. Cold Sun, Warm Beer (03:40)
5. Browning (03:14)
6. Hungry Ghost (03:48)
7. Corpse Flower (02:53)
8. Insolubles (04:08)
9. On Top of the World (03:20)
10. Yard Bull (04:21)
11. A Schoolgirl's Day (03:27)
12. Pink and Bleue (03:14)

Exact Audio Copy V1.3 from 2. September 2016

EAC extraction logfile from 8. February 2020, 1:55

Mike Patton & Jean-Claude Vannier / Corpse Flower

Used drive : hp PLDS DVDRW DU8AESH Adapter: 1 ID: 0

Read mode : Secure
Utilize accurate stream : Yes
Defeat audio cache : Yes
Make use of C2 pointers : No

Read offset correction : 6
Overread into Lead-In and Lead-Out : No
Fill up missing offset samples with silence : Yes
Delete leading and trailing silent blocks : No
Null samples used in CRC calculations : Yes
Used interface : Native Win32 interface for Win NT & 2000
Gap handling : Appended to previous track

Used output format : User Defined Encoder
Selected bitrate : 1024 kBit/s
Quality : High
Add ID3 tag : No
Command line compressor : C:\Program Files (x86)\Exact Audio Copy\Flac\flac.exe
Additional command line options : -8 -V -T "ARTIST=%artist%" -T "TITLE=%title%" -T "ALBUM=%albumtitle%" -T "DATE=%year%" -T "TRACKNUMBER=%tracknr%" -T "GENRE=%genre%" -T "PERFORMER=%albuminterpret%" -T "COMPOSER=%composer%" %haslyrics%–tag-from-file=LYRICS="%lyricsfile%"%haslyrics% -T "ALBUMARTIST=%albumartist%" -T "DISCNUMBER=%cdnumber%" -T "TOTALDISCS=%totalcds%" -T "TOTALTRACKS=%numtracks%" -T "COMMENT=%comment%" %source% -o %dest%


TOC of the extracted CD

Track | Start | Length | Start sector | End sector
––––––––––––––––––––––––––––-
1 | 0:00.00 | 3:21.14 | 0 | 15088
2 | 3:21.14 | 3:23.02 | 15089 | 30315
3 | 6:44.16 | 4:22.36 | 30316 | 50001
4 | 11:06.52 | 3:40.08 | 50002 | 66509
5 | 14:46.60 | 3:14.45 | 66510 | 81104
6 | 18:01.30 | 3:48.72 | 81105 | 98276
7 | 21:50.27 | 2:53.22 | 98277 | 111273
8 | 24:43.49 | 4:08.14 | 111274 | 129887
9 | 28:51.63 | 3:20.24 | 129888 | 144911
10 | 32:12.12 | 4:21.43 | 144912 | 164529
11 | 36:33.55 | 3:27.66 | 164530 | 180120
12 | 40:01.46 | 3:14.23 | 180121 | 194693


Track 1

Filename D:\Dropbox\EAC\Mike Patton & Jean-Claude Vannier - Corpse Flower (2019) [FLAC]\01. Ballade C.3.3.wav

Pre-gap length 0:00:02.00

Peak level 88.8 %
Extraction speed 0.9 X
Track quality 99.9 %
Test CRC 7CC8BF3F
Copy CRC 7CC8BF3F
Accurately ripped (confidence 8) [BEB6D616] (AR v2)
Copy OK

Track 2

Filename D:\Dropbox\EAC\Mike Patton & Jean-Claude Vannier - Corpse Flower (2019) [FLAC]\02. Camion.wav

Peak level 90.7 %
Extraction speed 1.1 X
Track quality 100.0 %
Test CRC 451ECA40
Copy CRC 451ECA40
Accurately ripped (confidence 8) [B1A2A7BE] (AR v2)
Copy OK

Track 3

Filename D:\Dropbox\EAC\Mike Patton & Jean-Claude Vannier - Corpse Flower (2019) [FLAC]\03. Chanson D'amour.wav

Peak level 88.5 %
Extraction speed 1.3 X
Track quality 100.0 %
Test CRC 211BB4D5
Copy CRC 211BB4D5
Accurately ripped (confidence 8) [A8542F6B] (AR v2)
Copy OK

Track 4

Filename D:\Dropbox\EAC\Mike Patton & Jean-Claude Vannier - Corpse Flower (2019) [FLAC]\04. Cold Sun Warm Beer.wav

Peak level 89.3 %
Extraction speed 1.2 X
Track quality 99.9 %
Test CRC 20273202
Copy CRC 20273202
Accurately ripped (confidence 8) [5BE3F58F] (AR v2)
Copy OK

Track 5

Filename D:\Dropbox\EAC\Mike Patton & Jean-Claude Vannier - Corpse Flower (2019) [FLAC]\05. Browning.wav

Peak level 88.6 %
Extraction speed 1.4 X
Track quality 100.0 %
Test CRC ABECC330
Copy CRC ABECC330
Accurately ripped (confidence 8) [094343A1] (AR v2)
Copy OK

Track 6

Filename D:\Dropbox\EAC\Mike Patton & Jean-Claude Vannier - Corpse Flower (2019) [FLAC]\06. Hungry Ghost.wav

Peak level 90.4 %
Extraction speed 1.6 X
Track quality 100.0 %
Test CRC 5703F1B5
Copy CRC 5703F1B5
Accurately ripped (confidence 8) [D21BAFA2] (AR v2)
Copy OK

Track 7

Filename D:\Dropbox\EAC\Mike Patton & Jean-Claude Vannier - Corpse Flower (2019) [FLAC]\07. Corpse Flower.wav

Peak level 89.4 %
Extraction speed 1.3 X
Track quality 99.9 %
Test CRC 9CFE67BC
Copy CRC 9CFE67BC
Accurately ripped (confidence 8) [C735636E] (AR v2)
Copy OK

Track 8

Filename D:\Dropbox\EAC\Mike Patton & Jean-Claude Vannier - Corpse Flower (2019) [FLAC]\08. Insolubles.wav

Peak level 88.6 %
Extraction speed 1.7 X
Track quality 100.0 %
Test CRC 6642E609
Copy CRC 6642E609
Accurately ripped (confidence 8) [BC8185EA] (AR v2)
Copy OK

Track 9

Filename D:\Dropbox\EAC\Mike Patton & Jean-Claude Vannier - Corpse Flower (2019) [FLAC]\09. On Top Of The World.wav

Peak level 88.9 %
Extraction speed 1.7 X
Track quality 100.0 %
Test CRC F8907988
Copy CRC F8907988
Accurately ripped (confidence 8) [B496DD18] (AR v2)
Copy OK

Track 10

Filename D:\Dropbox\EAC\Mike Patton & Jean-Claude Vannier - Corpse Flower (2019) [FLAC]\10. Yard Bull.wav

Peak level 88.8 %
Extraction speed 1.7 X
Track quality 99.9 %
Test CRC 8ECB73D4
Copy CRC 8ECB73D4
Accurately ripped (confidence 8) [1E3C2A0B] (AR v2)
Copy OK

Track 11

Filename D:\Dropbox\EAC\Mike Patton & Jean-Claude Vannier - Corpse Flower (2019) [FLAC]\11. A Schoolgirl's Day.wav

Peak level 89.7 %
Extraction speed 1.9 X
Track quality 100.0 %
Test CRC 08340B5F
Copy CRC 08340B5F
Accurately ripped (confidence 8) [62E54E22] (AR v2)
Copy OK

Track 12

Filename D:\Dropbox\EAC\Mike Patton & Jean-Claude Vannier - Corpse Flower (2019) [FLAC]\12. Pink And Bleue.wav

Peak level 89.6 %
Extraction speed 1.9 X
Track quality 100.0 %
Test CRC C74284CD
Copy CRC C74284CD
Accurately ripped (confidence 8) [83BD2B4C] (AR v2)
Copy OK


All tracks accurately ripped

No errors occurred

End of status report

–– CUETools DB Plugin V2.1.6

[CTDB TOCID: hIQ6F2.08NxxDz4m.41iAOAq77w-] found
Submit result: hIQ6F2.08NxxDz4m.41iAOAq77w- has been confirmed
Track | CTDB Status
1 | (28/28) Accurately ripped
2 | (28/28) Accurately ripped
3 | (28/28) Accurately ripped
4 | (28/28) Accurately ripped
5 | (28/28) Accurately ripped
6 | (28/28) Accurately ripped
7 | (28/28) Accurately ripped
8 | (28/28) Accurately ripped
9 | (28/28) Accurately ripped
10 | (28/28) Accurately ripped
11 | (28/28) Accurately ripped
12 | (28/28) Accurately ripped


==== Log checksum 4E76336B02F8B1F5B64EE96F9E058FEC6084974C1A420F5BE15ADFB4E09A9A22 ====

Thanks to the Original ripper !