Subcategories

Mikis Theodorakis - Ballads (2011)

Posted By: Speedyclick
Mikis Theodorakis - Ballads (2011)

Mikis Theodorakis - Ballads (2011)
EAC Rip | FLAC (image & cue & log) & mp3 @ 320 kbps | tracks: 9 | Scans | 40:38 | ~ 270 Mb & 108 Mb
Label: MINOS-EMI | 5% recovery record | First release: 1975 | Genre: Greek ballads

A melodic work of Mikis Theodorakis with 9 tender songs on the poetry of the Cretan poet Manolis Anagnostakis, interpreted by the young voices of Margarita Zorbala and Petros Pandis. The second track (Old streets) is based on the awarded music that Theodorakis composed for the Sidney Lumet's movie, "Serpico" in 1973. Excellent arrangements by the composer, for a rich orchestra that combines the bouzouki sounds (played by two virtuosi) with the flavor of cellos and classical guitars. Enjoy Mikis Theodorakis in a great inspirational moment. You will find a booklet scanned, with photos from the recording.

TRACKLIST
01. Petros Pandis - The shipwreck (To navagio)
02. Margarita Zorbala - Old streets (Dromoi palii)
03. Margarita Zorbala - Under my clothes (Kato ap' ta rouha mou)
04. Petros Pandis - Joy joy (Hara hara)
05. Margarita Zorbala - These verses (I stihi afti)
06. Petros Pandis - In my loneliness (Mes' tin klisti monaxia mou)
07. Petros Pandis - The streetcars were passing (Ke pernousane ta tram)
08. Petros Pandis - All are indexed (Ola ehoun apodeltiothi)
09. Margarita Zorbala - When a spring (Otan mia anixi)

Exact Audio Copy V1.0 beta 1 from 15. November 2010

EAC extraction logfile from 26. June 2011, 9:43

Various / Mikis Theodorakis - Ballads

Used drive : HL-DT-STDVDRAM GH10N Adapter: 3 ID: 0

Read mode : Secure
Utilize accurate stream : Yes
Defeat audio cache : Yes
Make use of C2 pointers : No

Read offset correction : 667
Overread into Lead-In and Lead-Out : No
Fill up missing offset samples with silence : Yes
Delete leading and trailing silent blocks : No
Null samples used in CRC calculations : Yes
Used interface : Native Win32 interface for Win NT & 2000

Used output format : User Defined Encoder
Selected bitrate : 1024 kBit/s
Quality : High
Add ID3 tag : No
Command line compressor : C:\Program Files\FLAC\flac.exe
Additional command line options : -V -5 -T "artist=%a" -T "title=%t" -T "album=%g" -T "date=%y" -T "tracknumber=%n" -T "genre=%m" -5 %s


TOC of the extracted CD

Track | Start | Length | Start sector | End sector
––––––––––––––––––––––––––––-
1 | 0:00.00 | 5:16.56 | 0 | 23755
2 | 5:16.56 | 6:11.37 | 23756 | 51617
3 | 11:28.18 | 2:46.35 | 51618 | 64102
4 | 14:14.53 | 3:24.22 | 64103 | 79424
5 | 17:39.00 | 6:01.48 | 79425 | 106547
6 | 23:40.48 | 2:46.02 | 106548 | 118999
7 | 26:26.50 | 5:59.11 | 119000 | 145935
8 | 32:25.61 | 2:17.64 | 145936 | 156274
9 | 34:43.50 | 5:54.51 | 156275 | 182875


Range status and errors

Selected range

Filename U:\EAC Rips\GREEK\Mikis Theodorakis\Mikis Theodorakis - Ballads\Various - Mikis Theodorakis - Ballads.wav

Peak level 91.1 %
Extraction speed 0.6 X
Range quality 99.9 %
Test CRC A4AEA553
Copy CRC A4AEA553
Copy OK

No errors occurred


AccurateRip summary

Track 1 cannot be verified as accurate (confidence 3) [B867DDAF], AccurateRip returned [1E5D9175]
Track 2 cannot be verified as accurate (confidence 3) [BA2F53AB], AccurateRip returned [8C60CB5B]
Track 3 cannot be verified as accurate (confidence 3) [C3849A9F], AccurateRip returned [DC4306A9]
Track 4 cannot be verified as accurate (confidence 3) [2E55FDE8], AccurateRip returned [D86DAAC0]
Track 5 not present in database
Track 6 not present in database
Track 7 not present in database
Track 8 not present in database
Track 9 not present in database

4 track(s) could not be verified as accurate
5 track(s) not present in the AccurateRip database

No tracks could be verified as accurate
You may have a different pressing from the one(s) in the database

End of status report

==== Log checksum 258238719B793FDAC91B5DEB2FA8618C9A0B84BBD319F3F4417243C2D759491F ====