Subcategories

Miles Davis - Collectors' Items (1956) {2009 Prestige RVG Remasters Series}

Posted By: ruskaval
Miles Davis - Collectors' Items (1956) {2009 Prestige RVG Remasters Series}

Miles Davis - Collectors' Items (1956) {2009 Prestige RVG Remasters Series}
EAC rip (secure mode) | FLAC (tracks)+CUE+LOG -> 219 Mb | MP3 @320 -> 103 Mb
Full Artwork @ 300 dpi (png) -> 20 Mb | 5% repair rar
© 1956, 2009 Concord / Prestige | 0888072312227 | 24-bit remaster
Jazz / Bop / Cool / Hard Bop / Trumpet

From the new liner notes: “The session of March 16, 1956 is one of most beautiful, laid-back, floating-on-a-cloud experiences one can have. The first time I listened to it, I replayed it three times. Side note: ‘Vierd Blues’ is the same piece that appears on Miles’s Trane’s Blues, and there credited to John Coltrane, as it was when Trane first recorded it on a Kenny Drew session, years before. Until it was combined with the 1956 date, the Miles-Bird-Sonny session lay in the vaults. Meanwhile, on May 15, 1953 Bird and Dizzy Gillespie recorded their famed Massey Hall concert in Toronto. When that record was issued ‘Charlie Chan’ was used as Bird’s pseudonym. That’s how it came to be used for Collectors’ Items.”
Miles Davis - Collectors' Items (1956) {2009 Prestige RVG Remasters Series}


Personnel:
Miles Davis, trumpet; Sonny Rollins, Charlie Parker (originally under the pseudonym Charlie Chan because he was under contract with Norman Granz, tracks 1-4 only), tenor saxophone; Walter Bishop (1-4), Tommy Flanagan (5-7), piano; Percy Heath (1-4), Paul Chambers (5-7), piano; Philly Joe Jones (1-4), Arthur Taylor (5-7), drums.

Featured tracks: “The Serpent’s Tooth (take 1 and take 2); “’Round Midnight,” “Compulsion,” “No Line,” Vierd Blues,’ “In Your Own Sweet Way”NOTE: Tracks 1, 2 and 4 were engineered by Bob Lee; track 3 engineer unknown. All other tracks were recorded by Rudy Van Gelder. All tracks remastered by Rudy Van Gelder)

tracklist:
01 - The Serpent's Tooth (take 1)
02 - The Serpent's Tooth (take 2)
03 - 'Round Midnight
04 - Compulsion
05 - No Line
06 - Vierd Blues
07 - In Your Own Sweet Way

Exact Audio Copy V0.99 prebeta 5 from 4. May 2009

EAC extraction logfile from 14. November 2009, 17:35

Miles Davis / Collectors' Items

Used drive : TSSTcorpCD/DVDW TS-H552L Adapter: 3 ID: 0

Read mode : Secure
Utilize accurate stream : Yes
Defeat audio cache : Yes
Make use of C2 pointers : No

Read offset correction : 6
Overread into Lead-In and Lead-Out : No
Fill up missing offset samples with silence : Yes
Delete leading and trailing silent blocks : No
Null samples used in CRC calculations : Yes
Used interface : Native Win32 interface for Win NT & 2000
Gap handling : Appended to previous track

Used output format : User Defined Encoder
Selected bitrate : 1024 kBit/s
Quality : High
Add ID3 tag : No
Command line compressor : C:\Program Files\FLAC\flac.exe
Additional command line options : -6 -V -T "ARTIST=%a" -T "TITLE=%t" -T "ALBUM=%g" -T "DATE=%y" -T "TRACKNUMBER=%n" -T "GENRE=%m" -T "COMMENT=EAC FLAC -6" %s


TOC of the extracted CD

Track | Start | Length | Start sector | End sector
––––––––––––––––––––––––––––-
1 | 0:00.00 | 7:03.72 | 0 | 31796
2 | 7:03.72 | 6:19.62 | 31797 | 60283
3 | 13:23.59 | 7:06.72 | 60284 | 92305
4 | 20:30.56 | 5:47.02 | 92306 | 118332
5 | 26:17.58 | 5:42.51 | 118333 | 144033
6 | 32:00.34 | 6:54.53 | 144034 | 175136
7 | 38:55.12 | 4:37.05 | 175137 | 195916


Track 1

Filename C:\Miles Davis - Collectors' Items (1953-56) {2009 Rudy Van Gelder Remaster}\01 - The Serpent's Tooth (take 1).wav

Pre-gap length 0:00:02.00

Peak level 97.9 %
Track quality 100.0 %
Test CRC 116F2C8D
Copy CRC 116F2C8D
Accurately ripped (confidence 2) [6358BEEE]
Copy OK

Track 2

Filename C:\Miles Davis - Collectors' Items (1953-56) {2009 Rudy Van Gelder Remaster}\02 - The Serpent's Tooth (take 2).wav

Pre-gap length 0:00:03.48

Peak level 97.9 %
Track quality 100.0 %
Test CRC 637B594C
Copy CRC 637B594C
Accurately ripped (confidence 2) [4E23321D]
Copy OK

Track 3

Filename C:\Miles Davis - Collectors' Items (1953-56) {2009 Rudy Van Gelder Remaster}\03 - 'Round Midnight.wav

Pre-gap length 0:00:03.29

Peak level 97.9 %
Track quality 100.0 %
Test CRC 17531A01
Copy CRC 17531A01
Accurately ripped (confidence 2) [5BE7494D]
Copy OK

Track 4

Filename C:\Miles Davis - Collectors' Items (1953-56) {2009 Rudy Van Gelder Remaster}\04 - Compulsion.wav

Pre-gap length 0:00:03.27

Peak level 97.9 %
Track quality 99.9 %
Test CRC 3EFECD7A
Copy CRC 3EFECD7A
Accurately ripped (confidence 2) [CA94C666]
Copy OK

Track 5

Filename C:\Miles Davis - Collectors' Items (1953-56) {2009 Rudy Van Gelder Remaster}\05 - No Line.wav

Pre-gap length 0:00:04.07

Peak level 97.9 %
Track quality 99.9 %
Test CRC BE8B6169
Copy CRC BE8B6169
Accurately ripped (confidence 2) [1C1BDFD9]
Copy OK

Track 6

Filename C:\Miles Davis - Collectors' Items (1953-56) {2009 Rudy Van Gelder Remaster}\06 - Vierd Blues.wav

Pre-gap length 0:00:03.46

Peak level 93.9 %
Track quality 100.0 %
Test CRC BE1FC21F
Copy CRC BE1FC21F
Accurately ripped (confidence 2) [68E00BD8]
Copy OK

Track 7

Filename C:\Miles Davis - Collectors' Items (1953-56) {2009 Rudy Van Gelder Remaster}\07 - In Your Own Sweet Way.wav

Pre-gap length 0:00:02.74

Peak level 97.7 %
Track quality 100.0 %
Test CRC D9CE7DF7
Copy CRC D9CE7DF7
Accurately ripped (confidence 2) [27AB252D]
Copy OK


All tracks accurately ripped

No errors occurred

End of status report


Miles Davis - Collectors' Items (1956) {2009 Prestige RVG Remasters Series}

Miles Davis - Collectors' Items (1956) {2009 Prestige RVG Remasters Series}



===