Subcategories

Miles Davis - Dark Magus (1974) {2CD Set CBS Sony Japan, Early Press, 50DP 719~20 rel 1987}

Posted By: ruskaval
Miles Davis - Dark Magus (1974) {2CD Set CBS Sony Japan, Early Press, 50DP 719~20 rel 1987}

Miles Davis - Dark Magus (1974) {2CD Set CBS Sony Japan, Early Press, 50DP 719~20 rel 1987}
EAC rip (secure mode) | FLAC (tracks)+CUE+LOG -> 636 Mb | MP3 @320 -> 240 Mb
Full Artwork @ 300 dpi (jpg) -> 15 Mb | 5% repair rar
© 1974, 1987 CBS / Sony Inc. Japan | 50DP 719~20
Jazz / Fusion / Jazz Funk / Jazz Rock / Trumpet

In January 1973, David Liebman, the saxophonist who played on the first sessions of On The Corner let himself be persuaded to play with the group. It really wasn’t his kind of music, but he thought that “it was where things were happening,” and as was his habit, he joined the fray. And it was prodigious, even if Miles had reduced his band in an attempt to radicalize the Afro-funk directions of On The Corner. No more keyboards, except for a few touches by Miles himself and no more Indian instruments.
Miles Davis - Dark Magus (1974) {2CD Set CBS Sony Japan, Early Press, 50DP 719~20 rel 1987}

What remained was Al Foster’s powerful drumming, Michael Henderson’s deep grooves, James “Mtume” Forman’s Afro percussion and, at first, two and then three guitars. Pete Cosey—a habitué of the blues and the Chicago Black avant-garde—revisited Jimi Hendrix’s legacy, in his own iconoclastic way, using a guitar tuned in Hendrix’s particular fashion, and all kinds of accessories. Reggie Lucas took charge of the rhythm, and throughout 1974, Dominique Gaumont contributed a solo guitar in the more classical Hendrix style. Invited without warning to join them on stage at the time of the concert, Azar Lawrence took several steps into the spectacular jungle of sound titled “Tatu.”

Original issue: CBS/Sony LP (J) 28AP 2165/66 in 1977 in Japan
Producer: Teo Macero
Engineer: Shuichiro Hoshin

All compositions by Miles Davis.

Recorded live at Carnegie Hall, NYC on March 30, 1974

Track 1-2 is misspelled as "Will" on this release, correct title is "Wili"
Miles Davis - Dark Magus (1974) {2CD Set CBS Sony Japan, Early Press, 50DP 719~20 rel 1987}


Musicians
Pete Cosey – electric guitar
Miles Davis – electric trumpet with wah-wah, Yamaha organ ("Wili", "Tatu", and "Nne")
Al Foster – drums
Dominique Gaumont – electric guitar ("Tatu", "Nne")
Michael Henderson – electric bass
Azar Lawrence – tenor saxophone ("Tatu", "Nne")
Dave Liebman – soprano saxophone, tenor saxophone
Reggie Lucas – electric guitar
James Mtume – percussion

Track LIsting
CD1

01- Dark Magus - Moja
02 -Dark Magus - Wili

Miles Davis - Dark Magus (1974) {2CD Set CBS Sony Japan, Early Press, 50DP 719~20 rel 1987}


CD2
01 - Dark Magus - Tatu
02 - Dark Magus - Nne

Miles Davis - Dark Magus (1974) {2CD Set CBS Sony Japan, Early Press, 50DP 719~20 rel 1987}


Exact Audio Copy V1.0 beta 1 from 15. November 2010

EAC extraction logfile from 13. January 2011, 10:55

Miles Davis / Dark Magus (Disc 1)

Used drive : TSSTcorpDVD+-RW TS-H653B Adapter: 0 ID: 1

Read mode : Secure
Utilize accurate stream : Yes
Defeat audio cache : Yes
Make use of C2 pointers : No

Read offset correction : 6
Overread into Lead-In and Lead-Out : No
Fill up missing offset samples with silence : Yes
Delete leading and trailing silent blocks : No
Null samples used in CRC calculations : Yes
Used interface : Native Win32 interface for Win NT & 2000
Gap handling : Appended to previous track

Used output format : User Defined Encoder
Selected bitrate : 768 kBit/s
Quality : High
Add ID3 tag : No
Command line compressor : C:\Program Files\Exact Audio Copy\FLAC\FLAC.EXE
Additional command line options : -8 -V -T "ARTIST=%a" -T "TITLE=%t" -T "ALBUM=%g" -T "DATE=%y" -T "TRACKNUMBER=%n" -T "TOTALTRACKS=%x" -T "GENRE=%m" -T "ALBUMARTIST=%v" -T "ALBUM ARTIST=%v" -T "COMMENT=EAC Secure Mode, Test & Copy, AccurateRip, FLAC -8" %s


TOC of the extracted CD

Track | Start | Length | Start sector | End sector
––––––––––––––––––––––––––––-
1 | 0:00.00 | 25:22.55 | 0 | 114204
2 | 25:22.55 | 25:02.25 | 114205 | 226879


Track 1

Filename C:\extract\Miles Davis - Dark Magus (1987) [FLAC] {Sony Japan 50DP 719~20}\Disc 1 of 2\01 - Moja.wav

Pre-gap length 0:00:02.00

Peak level 88.3 %
Extraction speed 6.2 X
Track quality 100.0 %
Test CRC A9A2B67B
Copy CRC A9A2B67B
Accurately ripped (confidence 3) [AF311A6F]
Copy OK

Track 2

Filename C:\extract\Miles Davis - Dark Magus (1987) [FLAC] {Sony Japan 50DP 719~20}\Disc 1 of 2\02 - Wili.wav

Pre-gap length 0:00:03.00

Peak level 96.4 %
Extraction speed 8.6 X
Track quality 100.0 %
Test CRC 31F65333
Copy CRC 31F65333
Accurately ripped (confidence 2) [0AAF65CE]
Copy OK


All tracks accurately ripped

No errors occurred

End of status report

==== Log checksum 323909EFD5B8BC63D00354136BDD5C859780027EAB6226C1EF6542BF8116B988 ====
Exact Audio Copy V1.0 beta 1 from 15. November 2010

EAC extraction logfile from 13. January 2011, 11:14

Miles Davis / Dark Magus (Disc 2)

Used drive : TSSTcorpDVD+-RW TS-H653B Adapter: 0 ID: 1

Read mode : Secure
Utilize accurate stream : Yes
Defeat audio cache : Yes
Make use of C2 pointers : No

Read offset correction : 6
Overread into Lead-In and Lead-Out : No
Fill up missing offset samples with silence : Yes
Delete leading and trailing silent blocks : No
Null samples used in CRC calculations : Yes
Used interface : Native Win32 interface for Win NT & 2000
Gap handling : Appended to previous track

Used output format : User Defined Encoder
Selected bitrate : 768 kBit/s
Quality : High
Add ID3 tag : No
Command line compressor : C:\Program Files\Exact Audio Copy\FLAC\FLAC.EXE
Additional command line options : -8 -V -T "ARTIST=%a" -T "TITLE=%t" -T "ALBUM=%g" -T "DATE=%y" -T "TRACKNUMBER=%n" -T "TOTALTRACKS=%x" -T "GENRE=%m" -T "ALBUMARTIST=%v" -T "ALBUM ARTIST=%v" -T "COMMENT=EAC Secure Mode, Test & Copy, AccurateRip, FLAC -8" %s


TOC of the extracted CD

Track | Start | Length | Start sector | End sector
––––––––––––––––––––––––––––-
1 | 0:00.00 | 25:20.52 | 0 | 114051
2 | 25:20.52 | 25:30.23 | 114052 | 228824


Track 1

Filename C:\extract\Miles Davis - Dark Magus (1987) [FLAC] {Sony Japan 50DP 719~20}\Disc 2 of 2\01 - Tatu.wav

Pre-gap length 0:00:02.00

Peak level 94.8 %
Extraction speed 6.1 X
Track quality 100.0 %
Test CRC 65586BA6
Copy CRC 65586BA6
Accurately ripped (confidence 3) [6ABE54F4]
Copy OK

Track 2

Filename C:\extract\Miles Davis - Dark Magus (1987) [FLAC] {Sony Japan 50DP 719~20}\Disc 2 of 2\02 - Nne.wav

Pre-gap length 0:00:03.00

Peak level 89.6 %
Extraction speed 8.6 X
Track quality 100.0 %
Test CRC 58177843
Copy CRC 58177843
Accurately ripped (confidence 3) [6998FA09]
Copy OK


All tracks accurately ripped

No errors occurred

End of status report

==== Log checksum E399A78CA81C8331C9D8371A281477F308436FF8B5B99E7D10DAFD13B666ADC5 ====


Miles Davis - Dark Magus (1974) {2CD Set CBS Sony Japan, Early Press, 50DP 719~20 rel 1987}



===