Subcategories

Miles Davis - E.S.P. (1965) {2000 SME Records Master Sound DSD Japan SRCS 9709}

Posted By: ruskaval
Miles Davis - E.S.P. (1965) {2000 SME Records Master Sound DSD Japan SRCS 9709}

Miles Davis - E.S.P. (1965) {2000 SME Records Master Sound DSD Japan SRCS 9709}
EAC rip (secure mode) | FLAC (tracks) +CUE+LOG -> 310 Mb | MP3 @320 -> 113 Mb
Full Artwork @ 300 dpi (jpg) -> 48 Mb | 5% repair rar
© 2000 SME Records / Sony Music Japan | SRCS 9709 | DSD | Mini LP
Jazz / Hard Bop / Modal Music / Trumpet

ESP marks the beginning of a revitalization for Miles Davis, as his second classic quintet – saxophonist Wayne Shorter, pianist Herbie Hancock, bassist Ron Carter, and drummer Tony Williams – gels, establishing what would become their signature adventurous hard bop. Miles had been moving toward this direction in the two years preceding the release of ESP and he had recorded with everyone outside of Shorter prior to this record, but his addition galvanizes the group, pushing them toward music that was recognizably bop but as adventurous as jazz's avant-garde.

Outwardly, this music doesn't take as many risks as Coltrane or Ornette Coleman's recordings of the mid-'60s, but by borrowing some of the same theories – a de-emphasis of composition in favor of sheer improvisation, elastic definitions of tonality – they created a unique sound that came to define the very sound of modern jazz. Certainly, many musicians have returned to this group for inspiration, but their recordings remain fresh, because they exist at this fine dividing line between standard bop and avant. On ESP, they tilt a bit toward conventional hard bop (something that's apparent toward the end of the record), largely because this is their first effort, but the fact is, this difference between this album and hard bop from the early '60s is remarkable. This is exploratory music, whether it's rushing by in a flurry of notes or elegantly reclining in Hancock's calm yet complex chords. The compositions are brilliantly structured as well, encouraging such free-form exploration with their elliptical yet memorable themes. This quintet may have cut more adventurous records, but ESP remains one of their very best albums.
Miles Davis - E.S.P. (1965) {2000 SME Records Master Sound DSD Japan SRCS 9709}


Personnel:
Miles Davis - Trumpet
Wayne Shorter - Tenor Sax
Herbie Hancock - Piano
Ron Carter - Bass
Tony Williams - Drums

Recorded In January, 1965 At Columbia Studios, Los Angeles, California

tracklist:
01. E.S.P. (W. Shorter/M. Davis) 5:29
02. Eighty-One (M. Davis/R. Carter) 6:14
03. Little One (H. Hancock) 7:20
04. R.J. (R. Carter) 3:56
05. Agitation (M. Davis) 7:47
06. Iris (W. Shorter/M. Davis) 8:31
07. Mood (R. Carter) 8:48

Sony Master Sound Reissue Series (1-bit DSD CDs in Mini-LP sleeves with black OBI strip)
Mastersound Producer: Moto Uehara
DSD Engineer: Kouji C Suzuki
Special Thanks to: Steve Berkowitz, Cindy Karp, David Smith, Mark Wilder, Bob Belden

EAC extraction logfile from 5. November 2006, 21:27 for CD
Miles Davis / E.S.P.

Used drive : _NEC DVD_RW ND-3550A Adapter: 1 ID: 0
Read mode : Secure with NO C2, accurate stream, disable cache
Read offset correction : 48
Overread into Lead-In and Lead-Out : No

Used output format : Internal WAV Routines
44.100 Hz; 16 Bit; Stereo

Other options :
Fill up missing offset samples with silence : Yes
Delete leading and trailing silent blocks : No
Native Win32 interface for Win NT & 2000


Track 1
Filename C:\ESP\01 - E.S.P..wav

Pre-gap length 0:00:02.00

Peak level 100.0 %
Track quality 99.9 %
Test CRC 34046671
Copy CRC 34046671
Copy OK

Track 2
Filename C:\ESP\02 - Eighty-One.wav

Pre-gap length 0:00:03.40

Peak level 100.0 %
Track quality 100.0 %
Test CRC FD186940
Copy CRC FD186940
Copy OK

Track 3
Filename C:\ESP\03 - Little One.wav

Pre-gap length 0:00:03.40

Peak level 100.0 %
Track quality 100.0 %
Test CRC FDF93470
Copy CRC FDF93470
Copy OK

Track 4
Filename C:\ESP\04 - R.J..wav

Pre-gap length 0:00:03.40

Peak level 97.6 %
Track quality 100.0 %
Test CRC 9D3EC2A5
Copy CRC 9D3EC2A5
Copy OK

Track 5
Filename C:\ESP\05 - Agitation.wav

Pre-gap length 0:00:07.40

Peak level 100.0 %
Track quality 100.0 %
Test CRC 82EE8E79
Copy CRC 82EE8E79
Copy OK

Track 6
Filename C:\ESP\06 - Iris.wav

Pre-gap length 0:00:03.40

Peak level 100.0 %
Track quality 99.9 %
Test CRC A915D465
Copy CRC A915D465
Copy OK

Track 7
Filename C:\ESP\07 - Mood.wav

Pre-gap length 0:00:03.44

Peak level 100.0 %
Track quality 100.0 %
Test CRC A00CEF2B
Copy CRC A00CEF2B
Copy OK

No errors occured


End of status report


Miles Davis - E.S.P. 			  		 	 	  		 	    	 			   			  	  		   	  	 			   		  		  			     	 			   		   	  		 			  		  					 (1965) {2000 SME Records Master Sound DSD Japan SRCS 9709}

Miles Davis - E.S.P. (1965) {2000 SME Records Master Sound DSD Japan SRCS 9709}


All thanks goes to the original releaser!

More Miles Davis Sony Master Sound Reissue Series with black OBI strip:
Miles Davis - In A Silent Way (1969) {2000 SME Master Sound DSD Japan SRCS 9713}


NEXT -> More More Miles Davis Sony Master Sound Reissue Series with black OBI strip on the way…