Subcategories

Miles Davis & John Coltrane - The Final Tour: The Bootleg Series, Vol. 6 (2018) {4CD Set Columbia 88985448392 rec 1960}

Posted By: ruskaval
Miles Davis & John Coltrane - The Final Tour: The Bootleg Series, Vol. 6 (2018) {4CD Set Columbia 88985448392 rec 1960}

Miles Davis & John Coltrane - The Final Tour: The Bootleg Series, Vol. 6 (2018) {4CD Set Columbia 88985448392 rec 1960}
EAC rip (secure mode) | FLAC (tracks)+CUE+LOG -> 1.07 Gb | MP3 @320 -> 528 Mb
Full Artwork @ 600 dpi (png) -> 1.32 Gb | 5% repair rar
© 1960, 2018 Columbia / Legacy / Sony Music | 8898544839
Jazz / Hard Bop / Bop / Cool / Modal Music / Trumpet / Saxophone

More than 50 years after Miles Davis and John Coltrane embarked on one last tour of Europe together, fans can finally own this crucial piece of history on The Final Tour: The Bootleg Series, Vol. 6, available everywhere today. This 4CD set features, for the first time in an authorized release, five breathtaking performances recorded in Paris, Stockholm and Copenhagen on the Jazz At The Philharmonic European Tour of spring 1960.
Miles Davis & John Coltrane - The Final Tour: The Bootleg Series, Vol. 6 (2018) {4CD Set Columbia 88985448392 rec 1960}

The sixth volume in Legacy's Miles Davis Bootleg Series circles back to 1999's Miles Davis and John Coltrane: The Complete Columbia Recordings 1955-1961, with an exclamation point. The four discs here are taken from five concerts in March 1960: Two sets from L'Olympia in Paris, two at Stockholm's Konserthuset, and one from Copenhagen's Tivolis Koncertsal. The three-week European tour was part of the Jazz at the Philharmonic series produced by George Wein. Accounts from Davis and drummer Jimmy Cobb claim certifiable tension surrounding John Coltrane. He left the band at the end of 1959 and reportedly had to be talked (hard) into taking the gig by Davis. It was the trumpeter's first European tour as an international jazz star, and the band – with Cobb, pianist Wynton Kelly, and bassist Paul Chambers were among the cats who recorded 1959's Kind of Blue.

Miles Davis & John Coltrane - The Final Tour: The Bootleg Series, Vol. 6 (2018) {4CD Set Columbia 88985448392 rec 1960}


From the opening moments of "All of You" in the first Paris show, it's obvious that what's happening on-stage wasn't planned. It took everyone, with the possible exception of Coltrane, by surprise, and is more than 17-minutes long. The lengthy solo by the saxophonist greets the changes with dissonance, sharp angles, and a (then) atypical fury as he tries out new sounds, fingerings, and breathing techniques. Kelly brings it back inside with his own solo, light, fleet, expert, and swinging. "All of You" is followed by a blazing 13-minute "So What," offered with the illuminating contrast that would underscore the tour: The reinvention of standards from the '40s and '50s with more open, less melodic modal jazz epitomized by the Kind of Blue material. In the first version of "All Blues," Davis follows Chambers and Kelly by adding more physicality to his own playing without sacrificing his lyric invention. It foreshadows Coltrane's wailing solo full of multiphonics, honks, and banks of layered scales that wove together East and West. The short reading of the bop standard "Oleo" is the only place in either of the Paris concerts where the saxophonist reigns himself in. "All Blues" from Copenhagen is also faster. Chambers' short solo intro is picked up by Kelly's fat vamp and Cobb's stutter-step beat before Davis takes the lean melody and stretches it, opening a door for Coltrane, who commences slowly before breaking its structure wide open.

Miles Davis & John Coltrane - The Final Tour: The Bootleg Series, Vol. 6 (2018) {4CD Set Columbia 88985448392 rec 1960}


Once more, it's Kelly's grooving solo with glorious right-hand flourishes that brings the hard swing back to the equation. All the music here is filled with these moments. The decision to rework the standards in order to make room for more openness was wise and all one needs to do is check the three versions of "On Green Dolphin Street" here for evidence. Interestingly, while the tour established Davis' international rep for good, it was Coltrane who benefitted most from the tour – he was all but unknown before it, and unforgettable after. The tape sources are all official: The Copenhagen gig is remastered from a state radio broadcast and the other two concerts are from producers' archives, making this historic set among the most essential in the Bootleg Series.
Miles Davis & John Coltrane - The Final Tour: The Bootleg Series, Vol. 6 (2018) {4CD Set Columbia 88985448392 rec 1960}


allaboutjazz.com INFO
legacyrecordings.com INFO


Personnel:
Miles Davis: trumpet
John Coltrane: tenor saxophone
Wynton Kelly: piano
Paul Chambers: bass
Jimmy Cobb: drums

Track Listing

CD 1
Olympia Theatre, Paris – March 21, 1960
First Concert

1. All of You
2. So What
3. On Green Dolphin Street
Second Concert
4. Walkin'

Miles Davis & John Coltrane - The Final Tour: The Bootleg Series, Vol. 6 (2018) {4CD Set Columbia 88985448392 rec 1960}


CD 2
Olympia Theatre, Paris – March 21, 1960 (second concert continued)

1. Bye Bye Blackbird
2. 'Round Midnight
3. Oleo
4. The Theme

Tivoli Kosertsal, Copenhagen – March 24, 1960
5. Introduction
6. So What
7. On Green Dolphin Street
8. All Blues
9. The Theme (incomplete)

Miles Davis & John Coltrane - The Final Tour: The Bootleg Series, Vol. 6 (2018) {4CD Set Columbia 88985448392 rec 1960}


CD 3
Koncerthuset, Stockholm – March 22, 1960 (first concert)

1. Introduction by Norman Granz
2. So What
3. Fran Dance
4. Walkin'
5. The Theme

Miles Davis & John Coltrane - The Final Tour: The Bootleg Series, Vol. 6 (2018) {4CD Set Columbia 88985448392 rec 1960}


CD 4
Koncerthuset, Stockholm – March 22, 1960 (second concert)

1. So What
2. On Green Dolphin Street
3. All Blues
4. The Theme

Interview
5. John Coltrane interview by Carl-Erik Lindgren

Miles Davis & John Coltrane - The Final Tour: The Bootleg Series, Vol. 6 (2018) {4CD Set Columbia 88985448392 rec 1960}


Exact Audio Copy V1.3 from 2. September 2016

EAC extraction logfile from 23. May 2018, 19:17

Miles Davis & John Coltrane / The Final Tour, The Bootleg Series, Vol. 6 (CD1)

Used drive : ATAPI iHAS122 F Adapter: 1 ID: 2

Read mode : Secure
Utilize accurate stream : Yes
Defeat audio cache : Yes
Make use of C2 pointers : No

Read offset correction : 6
Overread into Lead-In and Lead-Out : No
Fill up missing offset samples with silence : Yes
Delete leading and trailing silent blocks : No
Null samples used in CRC calculations : Yes
Used interface : Native Win32 interface for Win NT & 2000
Gap handling : Appended to previous track

Used output format : User Defined Encoder
Selected bitrate : 1024 kBit/s
Quality : High
Add ID3 tag : No
Command line compressor : C:\Program Files (x86)\Exact Audio Copy_v1.3\Flac\flac.exe
Additional command line options : -8 -V -T "ARTIST=%artist%" -T "TITLE=%title%" -T "ALBUM=%albumtitle%" -T "DATE=%year%" -T "TRACKNUMBER=%tracknr%" -T "TOTALTRACKS=%numtracks%" -T "GENRE=%genre%" -T "ALBUMARTIST=%albumartist%" -T "ALBUM ARTIST=%albumartist%" -T "COMMENT=EAC Secure Mode, Test & Copy, AccurateRip, FLAC -8" %source%


TOC of the extracted CD

Track | Start | Length | Start sector | End sector
––––––––––––––––––––––––––––-
1 | 0:00.00 | 17:05.34 | 0 | 76908
2 | 17:05.34 | 13:05.06 | 76909 | 135789
3 | 30:10.40 | 15:00.70 | 135790 | 203359
4 | 45:11.35 | 15:52.53 | 203360 | 274812


Track 1

Filename D:\_EAC\Miles Davis & John Coltrane - The Final Tour, The Bootleg Series, Vol. 6 (2018) [FLAC]\CD1\01 - All Of You.wav

Pre-gap length 0:00:02.00

Peak level 87.4 %
Extraction speed 6.4 X
Track quality 100.0 %
Test CRC BAD06DB6
Copy CRC BAD06DB6
Accurately ripped (confidence 3) [A62845DF] (AR v2)
Copy OK

Track 2

Filename D:\_EAC\Miles Davis & John Coltrane - The Final Tour, The Bootleg Series, Vol. 6 (2018) [FLAC]\CD1\02 - So What.wav

Peak level 88.1 %
Extraction speed 8.4 X
Track quality 100.0 %
Test CRC DD00BF2D
Copy CRC DD00BF2D
Accurately ripped (confidence 3) [35A1DDB4] (AR v2)
Copy OK

Track 3

Filename D:\_EAC\Miles Davis & John Coltrane - The Final Tour, The Bootleg Series, Vol. 6 (2018) [FLAC]\CD1\03 - On Green Dolphin Street.wav

Peak level 90.4 %
Extraction speed 9.7 X
Track quality 100.0 %
Test CRC 80169C26
Copy CRC 80169C26
Accurately ripped (confidence 3) [FF5D1A38] (AR v2)
Copy OK

Track 4

Filename D:\_EAC\Miles Davis & John Coltrane - The Final Tour, The Bootleg Series, Vol. 6 (2018) [FLAC]\CD1\04 - Walkin'.wav

Pre-gap length 0:00:01.28

Peak level 90.8 %
Extraction speed 10.9 X
Track quality 100.0 %
Test CRC C8E1A22D
Copy CRC C8E1A22D
Accurately ripped (confidence 3) [67686CEC] (AR v2)
Copy OK


All tracks accurately ripped

No errors occurred

End of status report

–– CUETools DB Plugin V2.1.6

[CTDB TOCID: zW0dE2ICYTRqnAGTsy_pMbLPKgU-] found
Submit result: zW0dE2ICYTRqnAGTsy_pMbLPKgU- has been confirmed
Track | CTDB Status
1 | (84/84) Accurately ripped
2 | (84/84) Accurately ripped
3 | (84/84) Accurately ripped
4 | (84/84) Accurately ripped


==== Log checksum 0A42150B50A1D3AFBC0AB6B2B6478289F6AB3FF008D33BCE648B0DD8461A1E28 ====
Exact Audio Copy V1.3 from 2. September 2016

EAC extraction logfile from 23. May 2018, 19:40

Miles Davis & John Coltrane / The Final Tour, The Bootleg Series, Vol. 6 (CD2)

Used drive : ATAPI iHAS122 F Adapter: 1 ID: 2

Read mode : Secure
Utilize accurate stream : Yes
Defeat audio cache : Yes
Make use of C2 pointers : No

Read offset correction : 6
Overread into Lead-In and Lead-Out : No
Fill up missing offset samples with silence : Yes
Delete leading and trailing silent blocks : No
Null samples used in CRC calculations : Yes
Used interface : Native Win32 interface for Win NT & 2000
Gap handling : Appended to previous track

Used output format : User Defined Encoder
Selected bitrate : 1024 kBit/s
Quality : High
Add ID3 tag : No
Command line compressor : C:\Program Files (x86)\Exact Audio Copy_v1.3\Flac\flac.exe
Additional command line options : -8 -V -T "ARTIST=%artist%" -T "TITLE=%title%" -T "ALBUM=%albumtitle%" -T "DATE=%year%" -T "TRACKNUMBER=%tracknr%" -T "TOTALTRACKS=%numtracks%" -T "GENRE=%genre%" -T "ALBUMARTIST=%albumartist%" -T "ALBUM ARTIST=%albumartist%" -T "COMMENT=EAC Secure Mode, Test & Copy, AccurateRip, FLAC -8" %source%


TOC of the extracted CD

Track | Start | Length | Start sector | End sector
––––––––––––––––––––––––––––-
1 | 0:00.00 | 14:01.03 | 0 | 63077
2 | 14:01.03 | 5:36.67 | 63078 | 88344
3 | 19:37.70 | 4:22.39 | 88345 | 108033
4 | 24:00.34 | 0:51.22 | 108034 | 111880
5 | 24:51.56 | 0:59.52 | 111881 | 116357
6 | 25:51.33 | 14:36.38 | 116358 | 182095
7 | 40:27.71 | 14:35.11 | 182096 | 247731
8 | 55:03.07 | 15:31.19 | 247732 | 317575
9 | 70:34.26 | 0:30.42 | 317576 | 319867


Track 1

Filename D:\_EAC\Miles Davis & John Coltrane - The Final Tour, The Bootleg Series, Vol. 6 (2018) [FLAC]\CD2\01 - Bye Bye Blackbird.wav

Pre-gap length 0:00:02.00

Peak level 89.0 %
Extraction speed 7.0 X
Track quality 100.0 %
Test CRC 1BDC78E0
Copy CRC 1BDC78E0
Accurately ripped (confidence 1) [EA181186] (AR v2)
Copy OK

Track 2

Filename D:\_EAC\Miles Davis & John Coltrane - The Final Tour, The Bootleg Series, Vol. 6 (2018) [FLAC]\CD2\02 - 'Round Midnight.wav

Peak level 94.4 %
Extraction speed 7.9 X
Track quality 100.0 %
Test CRC F0ECDC84
Copy CRC F0ECDC84
Accurately ripped (confidence 1) [A9B9F349] (AR v2)
Copy OK

Track 3

Filename D:\_EAC\Miles Davis & John Coltrane - The Final Tour, The Bootleg Series, Vol. 6 (2018) [FLAC]\CD2\03 - Oleo.wav

Peak level 87.1 %
Extraction speed 8.2 X
Track quality 100.0 %
Test CRC BF2EF462
Copy CRC BF2EF462
Accurately ripped (confidence 1) [F59590AD] (AR v2)
Copy OK

Track 4

Filename D:\_EAC\Miles Davis & John Coltrane - The Final Tour, The Bootleg Series, Vol. 6 (2018) [FLAC]\CD2\04 - The Theme.wav

Peak level 95.3 %
Extraction speed 5.6 X
Track quality 100.0 %
Test CRC 2DC87B90
Copy CRC 2DC87B90
Accurately ripped (confidence 1) [40C5224E] (AR v2)
Copy OK

Track 5

Filename D:\_EAC\Miles Davis & John Coltrane - The Final Tour, The Bootleg Series, Vol. 6 (2018) [FLAC]\CD2\05 - Introduction (by Norman Granz).wav

Pre-gap length 0:00:01.64

Peak level 81.0 %
Extraction speed 6.1 X
Track quality 100.0 %
Test CRC 7856CC65
Copy CRC 7856CC65
Accurately ripped (confidence 1) [359E49F8] (AR v2)
Copy OK

Track 6

Filename D:\_EAC\Miles Davis & John Coltrane - The Final Tour, The Bootleg Series, Vol. 6 (2018) [FLAC]\CD2\06 - So What.wav

Peak level 81.2 %
Extraction speed 10.0 X
Track quality 100.0 %
Test CRC B464ECEC
Copy CRC B464ECEC
Accurately ripped (confidence 1) [A53CE583] (AR v2)
Copy OK

Track 7

Filename D:\_EAC\Miles Davis & John Coltrane - The Final Tour, The Bootleg Series, Vol. 6 (2018) [FLAC]\CD2\07 - On Green Dolphin Street.wav

Peak level 68.3 %
Extraction speed 10.6 X
Track quality 99.9 %
Test CRC 2B32C43F
Copy CRC 2B32C43F
Accurately ripped (confidence 1) [090853A2] (AR v2)
Copy OK

Track 8

Filename D:\_EAC\Miles Davis & John Coltrane - The Final Tour, The Bootleg Series, Vol. 6 (2018) [FLAC]\CD2\08 - All Blues.wav

Peak level 75.2 %
Extraction speed 11.7 X
Track quality 99.9 %
Test CRC A2D7F9CA
Copy CRC A2D7F9CA
Accurately ripped (confidence 1) [70FF4098] (AR v2)
Copy OK

Track 9

Filename D:\_EAC\Miles Davis & John Coltrane - The Final Tour, The Bootleg Series, Vol. 6 (2018) [FLAC]\CD2\09 - The Theme (incomplete).wav

Peak level 58.5 %
Extraction speed 2.8 X
Track quality 99.6 %
Test CRC BFA6CB86
Copy CRC BFA6CB86
Accurately ripped (confidence 1) [79A800DD] (AR v2)
Copy OK


All tracks accurately ripped

No errors occurred

End of status report

–– CUETools DB Plugin V2.1.6

[CTDB TOCID: J_CcKGpThB9qEUVP7BytuY1IkRs-] found
Submit result: J_CcKGpThB9qEUVP7BytuY1IkRs- has been confirmed
Track | CTDB Status
1 | (82/82) Accurately ripped
2 | (82/82) Accurately ripped
3 | (82/82) Accurately ripped
4 | (82/82) Accurately ripped
5 | (82/82) Accurately ripped
6 | (82/82) Accurately ripped
7 | (82/82) Accurately ripped
8 | (82/82) Accurately ripped
9 | (82/82) Accurately ripped


==== Log checksum 25620B0412B6D35544B9D580CA57BDF2021458C358D542058976B257F79547AF ====
Exact Audio Copy V1.3 from 2. September 2016

EAC extraction logfile from 23. May 2018, 19:54

Miles Davis & John Coltrane / The Final Tour, The Bootleg Series, Vol. 6 (CD3)

Used drive : ATAPI iHAS122 F Adapter: 1 ID: 2

Read mode : Secure
Utilize accurate stream : Yes
Defeat audio cache : Yes
Make use of C2 pointers : No

Read offset correction : 6
Overread into Lead-In and Lead-Out : No
Fill up missing offset samples with silence : Yes
Delete leading and trailing silent blocks : No
Null samples used in CRC calculations : Yes
Used interface : Native Win32 interface for Win NT & 2000
Gap handling : Appended to previous track

Used output format : User Defined Encoder
Selected bitrate : 1024 kBit/s
Quality : High
Add ID3 tag : No
Command line compressor : C:\Program Files (x86)\Exact Audio Copy_v1.3\Flac\flac.exe
Additional command line options : -8 -V -T "ARTIST=%artist%" -T "TITLE=%title%" -T "ALBUM=%albumtitle%" -T "DATE=%year%" -T "TRACKNUMBER=%tracknr%" -T "TOTALTRACKS=%numtracks%" -T "GENRE=%genre%" -T "ALBUMARTIST=%albumartist%" -T "ALBUM ARTIST=%albumartist%" -T "COMMENT=EAC Secure Mode, Test & Copy, AccurateRip, FLAC -8" %source%


TOC of the extracted CD

Track | Start | Length | Start sector | End sector
––––––––––––––––––––––––––––-
1 | 0:00.00 | 1:10.65 | 0 | 5314
2 | 1:10.65 | 10:34.67 | 5315 | 52931
3 | 11:45.57 | 7:24.64 | 52932 | 86295
4 | 19:10.46 | 16:21.34 | 86296 | 159904
5 | 35:32.05 | 0:52.40 | 159905 | 163844


Track 1

Filename D:\_EAC\Miles Davis & John Coltrane - The Final Tour, The Bootleg Series, Vol. 6 (2018) [FLAC]\CD3\01 - Introduction (by Norman Granz).wav

Pre-gap length 0:00:02.00

Peak level 75.5 %
Extraction speed 3.7 X
Track quality 100.0 %
Test CRC D3A6B6E4
Copy CRC D3A6B6E4
Accurately ripped (confidence 1) [162FDE00] (AR v2)
Copy OK

Track 2

Filename D:\_EAC\Miles Davis & John Coltrane - The Final Tour, The Bootleg Series, Vol. 6 (2018) [FLAC]\CD3\02 - So What.wav

Peak level 76.6 %
Extraction speed 6.2 X
Track quality 100.0 %
Test CRC B17DDCBE
Copy CRC B17DDCBE
Accurately ripped (confidence 1) [9F8D8CE7] (AR v2)
Copy OK

Track 3

Filename D:\_EAC\Miles Davis & John Coltrane - The Final Tour, The Bootleg Series, Vol. 6 (2018) [FLAC]\CD3\03 - Fran Dance.wav

Peak level 73.5 %
Extraction speed 6.4 X
Track quality 99.9 %
Test CRC 1EDF03FC
Copy CRC 1EDF03FC
Accurately ripped (confidence 1) [B8766835] (AR v2)
Copy OK

Track 4

Filename D:\_EAC\Miles Davis & John Coltrane - The Final Tour, The Bootleg Series, Vol. 6 (2018) [FLAC]\CD3\04 - Walkin'.wav

Peak level 76.2 %
Extraction speed 8.6 X
Track quality 100.0 %
Test CRC 7DDCFA5A
Copy CRC 7DDCFA5A
Accurately ripped (confidence 1) [32D89828] (AR v2)
Copy OK

Track 5

Filename D:\_EAC\Miles Davis & John Coltrane - The Final Tour, The Bootleg Series, Vol. 6 (2018) [FLAC]\CD3\05 - The Theme.wav

Peak level 76.9 %
Extraction speed 5.7 X
Track quality 100.0 %
Test CRC 1A84F86F
Copy CRC 1A84F86F
Accurately ripped (confidence 1) [0AF477E6] (AR v2)
Copy OK


All tracks accurately ripped

No errors occurred

End of status report

–– CUETools DB Plugin V2.1.6

[CTDB TOCID: fGaa.9JOCymXks9jqLukxdcF42U-] found
Submit result: fGaa.9JOCymXks9jqLukxdcF42U- has been confirmed
Track | CTDB Status
1 | (85/87) Accurately ripped
2 | (87/87) Accurately ripped
3 | (87/87) Accurately ripped
4 | (87/87) Accurately ripped
5 | (87/87) Accurately ripped


==== Log checksum 7F8533098475E9AF51A750E91A8E393B2829C7F6A07AB3B3B2527893FBA8AEB9 ====
Exact Audio Copy V1.3 from 2. September 2016

EAC extraction logfile from 23. May 2018, 20:12

Miles Davis & John Coltrane / The Final Tour, The Bootleg Series, Vol. 6 (CD4)

Used drive : ATAPI iHAS122 F Adapter: 1 ID: 2

Read mode : Secure
Utilize accurate stream : Yes
Defeat audio cache : Yes
Make use of C2 pointers : No

Read offset correction : 6
Overread into Lead-In and Lead-Out : No
Fill up missing offset samples with silence : Yes
Delete leading and trailing silent blocks : No
Null samples used in CRC calculations : Yes
Used interface : Native Win32 interface for Win NT & 2000
Gap handling : Appended to previous track

Used output format : User Defined Encoder
Selected bitrate : 1024 kBit/s
Quality : High
Add ID3 tag : No
Command line compressor : C:\Program Files (x86)\Exact Audio Copy_v1.3\Flac\flac.exe
Additional command line options : -8 -V -T "ARTIST=%artist%" -T "TITLE=%title%" -T "ALBUM=%albumtitle%" -T "DATE=%year%" -T "TRACKNUMBER=%tracknr%" -T "TOTALTRACKS=%numtracks%" -T "GENRE=%genre%" -T "ALBUMARTIST=%albumartist%" -T "ALBUM ARTIST=%albumartist%" -T "COMMENT=EAC Secure Mode, Test & Copy, AccurateRip, FLAC -8" %source%


TOC of the extracted CD

Track | Start | Length | Start sector | End sector
––––––––––––––––––––––––––––-
1 | 0:00.00 | 15:20.27 | 0 | 69026
2 | 15:20.27 | 13:39.66 | 69027 | 130517
3 | 29:00.18 | 16:10.05 | 130518 | 203272
4 | 45:10.23 | 1:00.28 | 203273 | 207800
5 | 46:10.51 | 6:13.41 | 207801 | 235816


Track 1

Filename D:\_EAC\Miles Davis & John Coltrane - The Final Tour, The Bootleg Series, Vol. 6 (2018) [FLAC]\CD4\01 - So What.wav

Pre-gap length 0:00:02.00

Peak level 77.3 %
Extraction speed 6.4 X
Track quality 100.0 %
Test CRC 4E5F079F
Copy CRC 4E5F079F
Accurately ripped (confidence 1) [6E84663E] (AR v2)
Copy OK

Track 2

Filename D:\_EAC\Miles Davis & John Coltrane - The Final Tour, The Bootleg Series, Vol. 6 (2018) [FLAC]\CD4\02 - On Green Dolphin Street.wav

Peak level 75.5 %
Extraction speed 8.1 X
Track quality 100.0 %
Test CRC 2BD137A9
Copy CRC 2BD137A9
Accurately ripped (confidence 1) [7D2255F3] (AR v2)
Copy OK

Track 3

Filename D:\_EAC\Miles Davis & John Coltrane - The Final Tour, The Bootleg Series, Vol. 6 (2018) [FLAC]\CD4\03 - All Blues.wav

Peak level 74.6 %
Extraction speed 9.1 X
Track quality 99.9 %
Test CRC 573534AC
Copy CRC 573534AC
Accurately ripped (confidence 1) [1783CF41] (AR v2)
Copy OK

Track 4

Filename D:\_EAC\Miles Davis & John Coltrane - The Final Tour, The Bootleg Series, Vol. 6 (2018) [FLAC]\CD4\04 - The Theme.wav

Peak level 71.0 %
Extraction speed 3.8 X
Track quality 99.8 %
Test CRC 922F1756
Copy CRC 922F1756
Accurately ripped (confidence 1) [7512807F] (AR v2)
Copy OK

Track 5

Filename D:\_EAC\Miles Davis & John Coltrane - The Final Tour, The Bootleg Series, Vol. 6 (2018) [FLAC]\CD4\05 - John Coltrane Interview (by Carl-Erik Lindgren).wav

Pre-gap length 0:00:01.34

Peak level 77.7 %
Extraction speed 9.8 X
Track quality 100.0 %
Test CRC 423EE1BE
Copy CRC 423EE1BE
Accurately ripped (confidence 1) [C7A538C5] (AR v2)
Copy OK


All tracks accurately ripped

No errors occurred

End of status report

–– CUETools DB Plugin V2.1.6

[CTDB TOCID: 7JhfINzPkA4vnw9c3JRNmADMhGc-] found
Submit result: 7JhfINzPkA4vnw9c3JRNmADMhGc- has been confirmed
Track | CTDB Status
1 | (79/79) Accurately ripped
2 | (79/79) Accurately ripped
3 | (79/79) Accurately ripped
4 | (79/79) Accurately ripped
5 | (79/79) Accurately ripped


==== Log checksum C9845630447DEFA47FB3199F4AC46ADFFBB244A0B7683DDE57E93E23E1BEB86A ====


Miles Davis & John Coltrane - The Final Tour: The Bootleg Series, Vol. 6 (2018) {4CD Set Columbia 88985448392 rec 1960}



===