Subcategories

Miles Davis - Milestones (1958) {2001 Mastersound Japan Mini LP Edition, SRCS 9726}

Posted By: ruskaval
Miles Davis - Milestones (1958) {2001 Mastersound Japan Mini LP Edition, SRCS 9726}

Miles Davis - Milestones (1958) {2001 Mastersound Japan Mini LP Edition, SRCS 9726}
EAC rip (secure mode) | FLAC+CUE+LOG -> 510 Mb | MP3 @320 -> 164 Mb
Full Artwork @ 400 dpi (jpg) -> 61 Mb
© 2001 Sony Music Japan / SRCS 9726
Jazz / Hard Bop / Trumpet


Miles Davis - Milestones (1958) {2001 Mastersound Japan Mini LP Edition, SRCS 9726}

The title does not refer to the trumpeter's composition from his first recording date but is an acknowledgement of this session's visceral impact. Tenor saxophonist John Coltrane had left the trumpeter in the spring of 1957 to join Thelonious Monk for his engagement at New York's Five Spot, and was replaced by a rising star on alto saxophone, Julian "Cannonball" Adderley. When he returned, Davis had a formidable three-horn front line to go with "The Rhythm Section."
Personnel: Miles Davis (trumpet); Cannonball Adderley (alto saxophone); John Coltrane (tenor saxophone); Red Garland (piano); Philly Joe Jones (drums).

tracklist:
1. Dr. Jackle
2. Sid's Ahead
3. Two Bass Hit
4. Milestones
5. Billy Boy
6. Straight, No Chaser
7. Two Bass Hit (alternate take)
8. Milestones (alternate take)
9. Straight, No Chaser (alternate take)

Miles Davis - Milestones (1958) {2001 Mastersound Japan Mini LP Edition, SRCS 9726}

Exact Audio Copy V0.99 prebeta 5 from 4. May 2009

EAC extraction logfile from 11. July 2010, 21:43

Miles Davis / Milestones

Used drive : TSSTcorpCD/DVDW TS-H552L Adapter: 3 ID: 0

Read mode : Secure
Utilize accurate stream : Yes
Defeat audio cache : Yes
Make use of C2 pointers : No

Read offset correction : 6
Overread into Lead-In and Lead-Out : No
Fill up missing offset samples with silence : Yes
Delete leading and trailing silent blocks : No
Null samples used in CRC calculations : Yes
Used interface : Native Win32 interface for Win NT & 2000
Gap handling : Appended to previous track

Used output format : User Defined Encoder
Selected bitrate : 1024 kBit/s
Quality : High
Add ID3 tag : No
Command line compressor : C:\Program Files\FLAC\flac.exe
Additional command line options : -6 -V -T "ARTIST=%a" -T "TITLE=%t" -T "ALBUM=%g" -T "DATE=%y" -T "TRACKNUMBER=%n" -T "GENRE=%m" -T "COMMENT=EAC FLAC -6" %s


TOC of the extracted CD

Track | Start | Length | Start sector | End sector
––––––––––––––––––––––––––––-
1 | 0:00.00 | 5:49.32 | 0 | 26206
2 | 5:49.32 | 13:03.15 | 26207 | 84946
3 | 18:52.47 | 5:14.43 | 84947 | 108539
4 | 24:07.15 | 5:46.67 | 108540 | 134556
5 | 29:54.07 | 7:14.53 | 134557 | 167159
6 | 37:08.60 | 10:38.50 | 167160 | 215059
7 | 47:47.35 | 4:32.65 | 215060 | 235524
8 | 52:20.25 | 6:02.42 | 235525 | 262716
9 | 58:22.67 | 10:28.70 | 262717 | 309886


Track 1

Filename C:\ruskaval\Miles Davis - Milestones (1958) {2001 Mastersound Japan Mini LP Edition, SRCS 9726}\01 - Dr. Jackyll.wav

Pre-gap length 0:00:02.00

Peak level 95.4 %
Track quality 100.0 %
Test CRC B0FC878B
Copy CRC B0FC878B
Accurately ripped (confidence 3) [254A3023]
Copy OK

Track 2

Filename C:\ruskaval\Miles Davis - Milestones (1958) {2001 Mastersound Japan Mini LP Edition, SRCS 9726}\02 - Sid's Ahead.wav

Pre-gap length 0:00:02.07

Peak level 96.1 %
Track quality 100.0 %
Test CRC A350F55D
Copy CRC A350F55D
Accurately ripped (confidence 3) [FBDE8F46]
Copy OK

Track 3

Filename C:\ruskaval\Miles Davis - Milestones (1958) {2001 Mastersound Japan Mini LP Edition, SRCS 9726}\03 - Two Bass Hit.wav

Pre-gap length 0:00:02.55

Peak level 96.5 %
Track quality 100.0 %
Test CRC FEF3B5D9
Copy CRC FEF3B5D9
Accurately ripped (confidence 3) [9595A2DE]
Copy OK

Track 4

Filename C:\ruskaval\Miles Davis - Milestones (1958) {2001 Mastersound Japan Mini LP Edition, SRCS 9726}\04 - Milestones.wav

Pre-gap length 0:00:02.40

Peak level 95.5 %
Track quality 100.0 %
Test CRC 589C9A4D
Copy CRC 589C9A4D
Accurately ripped (confidence 3) [2CAA61F6]
Copy OK

Track 5

Filename C:\ruskaval\Miles Davis - Milestones (1958) {2001 Mastersound Japan Mini LP Edition, SRCS 9726}\05 - Billy Boy.wav

Pre-gap length 0:00:02.47

Peak level 95.9 %
Track quality 100.0 %
Test CRC 4D277BD5
Copy CRC 4D277BD5
Accurately ripped (confidence 3) [E1F2ECBD]
Copy OK

Track 6

Filename C:\ruskaval\Miles Davis - Milestones (1958) {2001 Mastersound Japan Mini LP Edition, SRCS 9726}\06 - Straight, No Chaser.wav

Pre-gap length 0:00:02.08

Peak level 95.5 %
Track quality 100.0 %
Test CRC 2BEE9A7D
Copy CRC 2BEE9A7D
Accurately ripped (confidence 3) [928331AD]
Copy OK

Track 7

Filename C:\ruskaval\Miles Davis - Milestones (1958) {2001 Mastersound Japan Mini LP Edition, SRCS 9726}\07 - Two Bass Hit (Alternate Take).wav

Pre-gap length 0:00:02.00

Peak level 95.3 %
Track quality 100.0 %
Test CRC EC81302B
Copy CRC EC81302B
Accurately ripped (confidence 3) [BA07793A]
Copy OK

Track 8

Filename C:\ruskaval\Miles Davis - Milestones (1958) {2001 Mastersound Japan Mini LP Edition, SRCS 9726}\08 - Milestones (Alternate Take).wav

Pre-gap length 0:00:01.43

Peak level 93.6 %
Track quality 100.0 %
Test CRC DE10ED1C
Copy CRC DE10ED1C
Accurately ripped (confidence 3) [A632EAE6]
Copy OK

Track 9

Filename C:\ruskaval\Miles Davis - Milestones (1958) {2001 Mastersound Japan Mini LP Edition, SRCS 9726}\09 - Straight, No Chaser (Alternate Take).wav

Pre-gap length 0:00:02.15

Peak level 95.3 %
Track quality 99.9 %
Test CRC E4FE1CCF
Copy CRC E4FE1CCF
Accurately ripped (confidence 3) [5D1BCFE0]
Copy OK


All tracks accurately ripped

No errors occurred

End of status report

HF Linkz

or

SM Linkz

p.s. the files are interchangeable…

no mirror, plz…