Subcategories

Miles Davis - Rare Unreleased Broadcasts with John Coltrane, Sonny Rollins and Bill Evans (1952-1958) {Yadeon 502}

Posted By: ruskaval
Miles Davis - Rare Unreleased Broadcasts with John Coltrane, Sonny Rollins and Bill Evans (1952-1958) {Yadeon 502}

Miles Davis - Rare Unreleased Broadcasts with John Coltrane, Sonny Rollins and Bill Evans (1952-1958) {Yadeon 502}
EAC rip (secure mode) | FLAC (tracks)+CUE+LOG -> 361 Mb | MP3 @320 -> 153 Mb | Artwork | 5% repair rar
© 1952-1958 Yadeon Canada | 502
Jazz / Bop / Cool / Trumpet

Miles Dewey Davis III (May 26, 1926 – September 28, 1991) was an American jazz musician, trumpeter, bandleader, and composer. Widely considered one of the most influential musicians of the 20th century, Miles Davis was, together with his musical groups, at the fore front of several major developments in jazz music, including BeBop, Cool Jazz, Hard Bop, Modal Jazz, and Jazz Fusion.

Personnel:
1) April 25, 1952:
Miles Davis (tp); Don Elliot (vib, mellophone); Chuck Wayne (g); Beryl Booker (p); Clyde Lombardi (b); Connie Kay (d)

2) November 17, 1955:
Miles Davis (tp); John Coltrane (ts); William "Red" Garland (p); Paul Chambers (b); Philly Joe Jones (d)

3) December 8, 1956:
Miles Davis (tp); John Coltrane (ts); William "Red" Garland (p); Paul Chambers (b); Philly Joe Jones (d)

4) July 13, 1957:
Miles Davis (tp); Sonny Rollins (ts); William "Red" Garland (p); Paul Chambers (b); Arthur Taylor (d); Guy Wallace (ann)

5) May 17, 1958:
Miles Davis (tp); John Coltrane (ts); Bill Evans (p); Paul Chambers (b); Philly Joe Jones (d)

Tracklist
April 25, 1952
1 All The Things You Are
2 The Squirrel
Nov. 17, 1955
3 Max Is Making Wax
4 It Never Entered My Mind
5 Tune Up
Dec. 8, 1956
6 Walkin'
7 Four
July 13, 1957
8 Bye Bye Blackbird
9 Four
10 Bye Bye Blackbird
May 17, 1958
11 Walkin'
12 Two Bass Hit
July 13, 1957
13 It Never Entered My Mind
14 Walkin'

Exact Audio Copy V0.99 prebeta 5 from 4. May 2009

EAC extraction logfile from 7. July 2009, 14:04

Miles Davis / Rare Unreleased Broadcasts with John Coltrane, Sonny Rollins and Bill Evans

Used drive : TDK DVDRW1616N Adapter: 1 ID: 1

Read mode : Secure
Utilize accurate stream : Yes
Defeat audio cache : Yes
Make use of C2 pointers : No

Read offset correction : 48
Overread into Lead-In and Lead-Out : No
Fill up missing offset samples with silence : Yes
Delete leading and trailing silent blocks : No
Null samples used in CRC calculations : Yes
Used interface : Native Win32 interface for Win NT & 2000
Gap handling : Appended to previous track

Used output format : User Defined Encoder
Selected bitrate : 128 kBit/s
Quality : High
Add ID3 tag : No
Command line compressor : C:\Program Files (x86)\FLAC Frontend\tools\flac.exe
Additional command line options : -8 -V -T "ARTIST=%a" -T "TITLE=%t" -T "ALBUM=%g" -T "DATE=%y" -T "TRACKNUMBER=%n" -T "GENRE=%m" -T "COMMENT=EAC FLAC -8" %s


TOC of the extracted CD

Track | Start | Length | Start sector | End sector
––––––––––––––––––––––––––––-
1 | 0:00.00 | 9:07.55 | 0 | 41079
2 | 9:07.55 | 3:55.20 | 41080 | 58724
3 | 13:03.00 | 3:14.70 | 58725 | 73344
4 | 16:17.70 | 2:54.62 | 73345 | 86456
5 | 19:12.57 | 4:23.23 | 86457 | 106204
6 | 23:36.05 | 5:20.20 | 106205 | 130224
7 | 28:56.25 | 6:11.32 | 130225 | 158081
8 | 35:07.57 | 4:32.45 | 158082 | 178526
9 | 39:40.27 | 4:51.20 | 178527 | 200371
10 | 44:31.47 | 6:57.58 | 200372 | 231704
11 | 51:29.30 | 6:32.45 | 231705 | 261149
12 | 58:02.00 | 0:48.42 | 261150 | 264791
13 | 58:50.42 | 3:52.68 | 264792 | 282259
14 | 62:43.35 | 1:23.72 | 282260 | 288556


Track 1

Filename F:\DL\Miles Davis - Rare Unreleased Broadcasts (1958) [FLAC]\01 - All The Things You Are.wav

Pre-gap length 0:00:02.00

Peak level 65.1 %
Track quality 100.0 %
Test CRC E2B98247
Copy CRC E2B98247
Track not present in AccurateRip database
Copy OK

Track 2

Filename F:\DL\Miles Davis - Rare Unreleased Broadcasts (1958) [FLAC]\02 - The Squirrel.wav

Peak level 48.2 %
Track quality 100.0 %
Test CRC 481835DC
Copy CRC 481835DC
Track not present in AccurateRip database
Copy OK

Track 3

Filename F:\DL\Miles Davis - Rare Unreleased Broadcasts (1958) [FLAC]\03 - Max Is Making Wax.wav

Peak level 58.3 %
Track quality 99.9 %
Test CRC 208EB1B6
Copy CRC 208EB1B6
Track not present in AccurateRip database
Copy OK

Track 4

Filename F:\DL\Miles Davis - Rare Unreleased Broadcasts (1958) [FLAC]\04 - It Never Entered My Mind.wav

Peak level 47.5 %
Track quality 100.0 %
Test CRC 0B68A16D
Copy CRC 0B68A16D
Track not present in AccurateRip database
Copy OK

Track 5

Filename F:\DL\Miles Davis - Rare Unreleased Broadcasts (1958) [FLAC]\05 - Tune Up.wav

Peak level 40.2 %
Track quality 99.9 %
Test CRC 18422AC6
Copy CRC 18422AC6
Track not present in AccurateRip database
Copy OK

Track 6

Filename F:\DL\Miles Davis - Rare Unreleased Broadcasts (1958) [FLAC]\06 - Walkin'.wav

Peak level 45.5 %
Track quality 100.0 %
Test CRC CA95F08E
Copy CRC CA95F08E
Track not present in AccurateRip database
Copy OK

Track 7

Filename F:\DL\Miles Davis - Rare Unreleased Broadcasts (1958) [FLAC]\07 - Four.wav

Peak level 90.1 %
Track quality 100.0 %
Test CRC 6D008855
Copy CRC 6D008855
Track not present in AccurateRip database
Copy OK

Track 8

Filename F:\DL\Miles Davis - Rare Unreleased Broadcasts (1958) [FLAC]\08 - Bye Bye Blackbird.wav

Peak level 66.6 %
Track quality 99.9 %
Test CRC A5343FB4
Copy CRC A5343FB4
Track not present in AccurateRip database
Copy OK

Track 9

Filename F:\DL\Miles Davis - Rare Unreleased Broadcasts (1958) [FLAC]\09 - Four.wav

Peak level 74.2 %
Track quality 100.0 %
Test CRC BE196CBB
Copy CRC BE196CBB
Track not present in AccurateRip database
Copy OK

Track 10

Filename F:\DL\Miles Davis - Rare Unreleased Broadcasts (1958) [FLAC]\10 - Bye Bye Blackbird.wav

Peak level 50.8 %
Track quality 100.0 %
Test CRC EDF4A44C
Copy CRC EDF4A44C
Track not present in AccurateRip database
Copy OK

Track 11

Filename F:\DL\Miles Davis - Rare Unreleased Broadcasts (1958) [FLAC]\11 - Walkin'.wav

Peak level 70.6 %
Track quality 100.0 %
Test CRC BC904E40
Copy CRC BC904E40
Track not present in AccurateRip database
Copy OK

Track 12

Filename F:\DL\Miles Davis - Rare Unreleased Broadcasts (1958) [FLAC]\12 - Two Bass Hit.wav

Peak level 50.8 %
Track quality 100.0 %
Test CRC 2F4D96F5
Copy CRC 2F4D96F5
Track not present in AccurateRip database
Copy OK

Track 13

Filename F:\DL\Miles Davis - Rare Unreleased Broadcasts (1958) [FLAC]\13 - It Never Entered My Mind.wav

Peak level 69.8 %
Track quality 100.0 %
Test CRC 91B96415
Copy CRC 91B96415
Track not present in AccurateRip database
Copy OK

Track 14

Filename F:\DL\Miles Davis - Rare Unreleased Broadcasts (1958) [FLAC]\14 - Walkin'.wav

Peak level 61.3 %
Track quality 100.0 %
Test CRC 1824669E
Copy CRC 1824669E
Track not present in AccurateRip database
Copy OK


None of the tracks are present in the AccurateRip database

No errors occurred

End of status report


Miles Davis - Rare Unreleased Broadcasts with John Coltrane, Sonny Rollins and Bill Evans (1952-1958) {Yadeon 502}

Miles Davis - Rare Unreleased Broadcasts with John Coltrane, Sonny Rollins and Bill Evans (1952-1958) {Yadeon 502}



===