Subcategories

Miles Davis - The Complete In A Silent Way Sessions (1969) [3CD Boxset]

Posted By: ruskaval
Miles Davis - The Complete In A Silent Way Sessions (1969) [3CD Boxset]

Miles Davis - The Complete In A Silent Way Sessions (1969) [3CD Boxset]
EAC rip (secure mode) | FLAC+CUE+LOG -> 428 Mb + 372 Mb + 394 Mb
MP3 @320 -> 163 Mb + 152 Mb + 162 Mb | Artwork (jpg) -> 8 Mb
Sony Music (2001) / Legacy / Columbia | C3K 65362

Miles Davis - The Complete In A Silent Way Sessions (1969) [3CD Boxset]

Though BITCHES BREW has attained iconic status as one of the most important, progressive statements … Full Descriptionin post-bop jazz history, it's predecessor IN A SILENT WAY–though less widely acknowledged–was perhaps even more revolutionary for its dissolution of the songform-oriented cool jazz approach and introduction of electric instruments. This three-disc set, featuring all the material laid down in those vaunted 1969 sessions, is a revelatory sonic document that further illuminates the maverick genius of Miles Davis. In addition to the original SILENT WAY tracks as we know them, there are previously unheard compositions and alternate versions that shed new light on Miles's process. "The Ghetto Walk," for example, which was never released before in any form is a slow-burner that features some of new arrival John McLaughlin's most expansive, questing guitar work (partially due to Miles's penchant for springing new, unrehearsed material on his musicians). The shifting, kaleidoscopic keyboard work of Chick Corea, Herbie Hancock, and Joe Zawinul (what a trio!), gives another undiscovered gem "Early Minor" a haunting, ethereal feel. Additionally, the full, unedited versions of tunes included on the original album give an idea of producer Teo Macero's groundbreaking cut-and-paste editing process. For anyone interested in the evolution of modern jazz, THE COMPLETE IN A SILENT WAY SESSIONS is an essential item.

Personnel include: Miles Davis (trumpet); John McLaughlin (guitar); Wayne Shorter (soprano saxophone, tenor saxophone); Chick Corea, Herbie Hancock (electric piano); Joe Zawinul (organ); Dave Holland (bass instrument); Jack DeJohnette (drums, tambourine); Joe Chambers, Tony Williams (drums); Teo Macero (tambourine).

tracklist
Disc: 1

1. Mademoiselle Mabry
2. Frelon Brun
3. Two Faced
4. Dual Mr. Anthony Tillmon Williams Process
5. Splash
6. Splashdown

Disc: 2

1. Ascent
2. Directions I
3. Directions II
4. Shhh/Peaceful
5. In A Silent Way (rehearsal)
6. In A Silent Way
7. It’s About That Time

Disc: 3

1. The Ghetto Walk
2. Early Minor
3. Shhh/Peaceful (LP Version)
4. In A Silent Way/It’s About That Time (LP Version)

Miles Davis - The Complete In A Silent Way Sessions (1969) [3CD Boxset]

Exact Audio Copy V0.99 prebeta 4 from 23. January 2008

EAC extraction logfile from 12. June 2009, 12:03

Miles Davis / The Complete In A Silent Way Sessions (CD3)

Used drive : PIONEER DVD-RW DVR-111L Adapter: 0 ID: 0

Read mode : Secure
Utilize accurate stream : Yes
Defeat audio cache : Yes
Make use of C2 pointers : No

Read offset correction : 48
Overread into Lead-In and Lead-Out : No
Fill up missing offset samples with silence : Yes
Delete leading and trailing silent blocks : No
Null samples used in CRC calculations : Yes
Used interface : Native Win32 interface for Win NT & 2000
Gap handling : Appended to previous track

Used output format : User Defined Encoder
Selected bitrate : 768 kBit/s
Quality : High
Add ID3 tag : No
Command line compressor : C:\Program Files\FLAC\flac.exe
Additional command line options : -8 -V -T "ARTIST=%a" -T "TITLE=%t" -T "ALBUM=%g" -T "DATE=%y" -T "TRACKNUMBER=%n" -T "GENRE=%m" -T "COMMENT=EAC FLAC -8" %s


TOC of the extracted CD

Track | Start | Length | Start sector | End sector
––––––––––––––––––––––––––––-
1 | 0:00.00 | 26:49.45 | 0 | 120719
2 | 26:49.45 | 6:58.42 | 120720 | 152111
3 | 33:48.12 | 18:18.08 | 152112 | 234469
4 | 52:06.20 | 19:52.62 | 234470 | 323931


Track 1

Filename C:\Miles Davis - The Complete In A Silent Way Sessions (1969) (3CD)\CD3\01 - The Ghetto Walk.wav

Pre-gap length 0:00:02.00

Peak level 97.7 %
Track quality 100.0 %
Test CRC 7FEBED57
Copy CRC 7FEBED57
Copy OK

Track 2

Filename C:\Miles Davis - The Complete In A Silent Way Sessions (1969) (3CD)\CD3\02 - Early Minor.wav

Pre-gap length 0:00:02.55

Peak level 92.6 %
Track quality 100.0 %
Test CRC 97BA03FF
Copy CRC 97BA03FF
Copy OK

Track 3

Filename C:\Miles Davis - The Complete In A Silent Way Sessions (1969) (3CD)\CD3\03 - Shhh , Peaceful (LP Version).wav

Pre-gap length 0:00:02.70

Peak level 86.1 %
Track quality 100.0 %
Test CRC 86D52A62
Copy CRC 86D52A62
Copy OK

Track 4

Filename C:\Miles Davis - The Complete In A Silent Way Sessions (1969) (3CD)\CD3\04 - In A Silent Way , It's About That Time (LP Version).wav

Pre-gap length 0:00:01.65

Peak level 91.6 %
Track quality 100.0 %
Test CRC AF740C20
Copy CRC AF740C20
Copy OK

No errors occurred

End of status report

dead links -> send me a Private Message…

FileSonic Linkz

or

FileServe Linkz

p.s. the files are interchangeable…

pass: ruskaval

No Mirror, plz!