Subcategories

Darius Milhaud (1892-1974) - Ensemble Villa Musica - Kammersymphonien No.1-6 (1992)

Posted By: luckburz
Darius Milhaud (1892-1974) - Ensemble Villa Musica - Kammersymphonien No.1-6 (1992)

Darius Milhaud - Ensemble Villa Musica - Kammer-Symphonien No. 1-6 / Suite D'Après Corrette / Les Rêves De Jacob
EAC+LOG+CUE | FLAC: 233 MB | Full Artwork | 5% Recovery Info
Label/Cat#: MDG # L 3449 | Country/Year: Germany 1992
Genre: Classical | Style: Contemporary

MD5 [X] CUE [X] LOG [X] INFO TEXT [X] ARTWORK [X]

selfrip [X] not my rip []

Darius Milhaud (1892-1974) - Ensemble Villa Musica - Kammersymphonien No.1-6 (1992)


Exact Audio Copy V1.0 beta 3 from 29. August 2011

EAC extraction logfile from 1. October 2012, 20:25

Ensemble Villa Musica / Milhaud: Kammersymphonien No.1-6

Used drive : PIONEER BD-RW BDR-206 Adapter: 0 ID: 2

Read mode : Secure
Utilize accurate stream : Yes
Defeat audio cache : Yes
Make use of C2 pointers : No

Read offset correction : 667
Overread into Lead-In and Lead-Out : No
Fill up missing offset samples with silence : Yes
Delete leading and trailing silent blocks : No
Null samples used in CRC calculations : Yes
Used interface : Native Win32 interface for Win NT & 2000

Used output format : User Defined Encoder
Selected bitrate : 1024 kBit/s
Quality : High
Add ID3 tag : Yes
Command line compressor : C:\Program Files\FLAC\flac.exe
Additional command line options : -5 -T "Artist=%artist%" -T "Title=%title%" -T "Album=%albumtitle%" -T "Date=%year%" -T "Tracknumber=%tracknr%" -T "Genre=%genre%" %source% -o %dest%


TOC of the extracted CD

Track | Start | Length | Start sector | End sector
––––––––––––––––––––––––––––-
1 | 0:00.00 | 1:26.37 | 0 | 6486
2 | 1:26.37 | 1:25.73 | 6487 | 12934
3 | 2:52.35 | 1:06.40 | 12935 | 17924
4 | 3:59.00 | 1:08.40 | 17925 | 23064
5 | 5:07.40 | 2:41.07 | 23065 | 35146
6 | 7:48.47 | 1:12.65 | 35147 | 40611
7 | 9:01.37 | 1:13.60 | 40612 | 46146
8 | 10:15.22 | 1:41.33 | 46147 | 53754
9 | 11:56.55 | 1:02.70 | 53755 | 58474
10 | 12:59.50 | 1:41.57 | 58475 | 66106
11 | 14:41.32 | 2:25.05 | 66107 | 76986
12 | 17:06.37 | 1:56.08 | 76987 | 85694
13 | 19:02.45 | 1:23.25 | 85695 | 91944
14 | 20:25.70 | 3:54.02 | 91945 | 109496
15 | 24:19.72 | 1:21.58 | 109497 | 115629
16 | 25:41.55 | 3:14.37 | 115630 | 130216
17 | 28:56.17 | 1:43.03 | 130217 | 137944
18 | 30:39.20 | 2:49.05 | 137945 | 150624
19 | 33:28.25 | 1:31.47 | 150625 | 157496
20 | 34:59.72 | 0:23.50 | 157497 | 159271
21 | 35:23.47 | 0:51.23 | 159272 | 163119
22 | 36:14.70 | 1:01.55 | 163120 | 167749
23 | 37:16.50 | 0:36.67 | 167750 | 170516
24 | 37:53.42 | 0:52.63 | 170517 | 174479
25 | 38:46.30 | 2:23.40 | 174480 | 185244
26 | 41:09.70 | 1:01.07 | 185245 | 189826
27 | 42:11.02 | 2:58.18 | 189827 | 203194
28 | 45:09.20 | 5:27.25 | 203195 | 227744
29 | 50:36.45 | 2:40.47 | 227745 | 239791
30 | 53:17.17 | 3:28.48 | 239792 | 255439
31 | 56:45.65 | 2:43.27 | 255440 | 267691


Range status and errors

Selected range

Filename F:\=== VINYL RIPS ===\=== EAC===\X FRESH RIP\Milhaud- Ensemble Villa Musica - Kammersymphonien No.1-6.wav

Peak level 100.0 %
Extraction speed 1.2 X
Range quality 100.0 %
Test CRC A9A9F687
Copy CRC A9A9F687
Copy OK

No errors occurred


AccurateRip summary

Track 1 not present in database
Track 2 not present in database
Track 3 not present in database
Track 4 not present in database
Track 5 not present in database
Track 6 not present in database
Track 7 not present in database
Track 8 not present in database
Track 9 not present in database
Track 10 not present in database
Track 11 not present in database
Track 12 not present in database
Track 13 not present in database
Track 14 not present in database
Track 15 not present in database
Track 16 not present in database
Track 17 not present in database
Track 18 not present in database
Track 19 not present in database
Track 20 not present in database
Track 21 not present in database
Track 22 not present in database
Track 23 not present in database
Track 24 not present in database
Track 25 not present in database
Track 26 not present in database
Track 27 not present in database
Track 28 not present in database
Track 29 not present in database
Track 30 not present in database
Track 31 not present in database

None of the tracks are present in the AccurateRip database

End of status report

–– CUETools DB Plugin V2.1.3

[CTDB TOCID: Wha7KRL.JQCS9QbWqo9VuXM7n6c-] disk not present in database, Submit result: Wha7KRL.JQCS9QbWqo9VuXM7n6c- has been uploaded


==== Log checksum 42892475D2962C5038105C8508F84BDDDA0B0887A246DEFEDE4F7BBCE6F3DED0 ====

foobar2000 1.1.14a / Dynamic Range Meter 1.1.1
log date: 2012-11-06 22:08:00

––––––––––––––––––––––––––––––––––––––––
Analyzed: 1. Symphonie (Le Printemps) op.43 / Milhaud: Kammersymphonien No.1-6 (1-3)
2. Symphonie (Pastorale) op.49 / Milhaud: Kammersymphonien No.1-6 (4-6)
3. Symphonie (Sérénade) op.71 / Milhaud: Kammersymphonien No.1-6 (7-9)
4. Symphonie (Dixtuor) op.74 / Milhaud: Kammersymphonien No.1-6 (10-12)
5. Symphonie (Dixtuor d'instruments à vent) op.75 / Milhaud: Kammersymphonien No.1-6 (13-15)
6. Symphonie op.79 / Milhaud: Kammersymphonien No.1-6 (16-18)
Les Rêves de Jacob op.294 / Milhaud: Kammersymphonien No.1-6 (19-23)
––––––––––––––––––––––––––––––––––––––––

DR Peak RMS Duration Track
––––––––––––––––––––––––––––––––––––––––
DR10 -5.81 dB -21.85 dB 1:26 01-I. Allant
DR12 -5.32 dB -24.07 dB 1:26 02-II. Chantant
DR12 -2.15 dB -19.87 dB 1:07 03-III. Et Vif!
DR11 -1.95 dB -16.82 dB 1:09 04-I. Joyeux
DR11 -9.96 dB -25.74 dB 2:41 05-II. Calme
DR11 -6.79 dB -20.67 dB 1:13 06-III. Joyeux
DR11 -5.89 dB -22.97 dB 1:14 07-I. Vivement
DR11 -9.25 dB -25.21 dB 1:41 08-II. Calme
DR12 -0.01 dB -20.01 dB 1:03 09-III. Rondement
DR11 -4.20 dB -19.85 dB 1:42 10-I. Ouverture. Animé
DR11 -6.35 dB -23.54 dB 2:25 11-II. Choral. Assez lent
DR12 -2.79 dB -19.87 dB 1:56 12-III.Etude
DR11 -0.14 dB -18.02 dB 1:23 13-I. Rude
DR11 -11.93 dB -28.16 dB 3:54 14-II. Lent
DR11 -0.29 dB -18.90 dB 1:22 15-III. Violent
DR12 -8.17 dB -25.10 dB 3:14 16-I. Calme et doux
DR11 -0.80 dB -19.47 dB 1:43 17-II. Souple et Vif
DR11 -7.17 dB -30.03 dB 2:49 18-III. Lent trés exprssif
DR12 -0.34 dB -18.86 dB 2:58 27-I. Animé
DR12 -1.22 dB -19.91 dB 5:27 28-Mytérieux
DR12 -1.52 dB -19.10 dB 2:41 29-Modéré
DR13 -0.03 dB -17.82 dB 3:29 30-Modérément Animé
DR12 0.00 dB -17.61 dB 2:43 31-Modérément Animé Solennel
––––––––––––––––––––––––––––––––––––––––

Number of tracks: 23
Official DR value: DR12

Samplerate: 44100 Hz
Channels: 2
Bits per sample: 16
Bitrate: 549 kbps
Codec: FLAC
================================================================================

––––––––––––––––––––––––––––––––––––––––
Analyzed: Suite d'après Corrette op.161b / Milhaud: Kammersymphonien No.1-6
––––––––––––––––––––––––––––––––––––––––

DR Peak RMS Duration Track
––––––––––––––––––––––––––––––––––––––––
DR12 -6.23 dB -21.38 dB 1:32 19-I. Entrée et rondeau
DR12 -5.72 dB -24.18 dB 0:24 20-II. Tambourin
DR10 -10.69 dB -24.26 dB 0:51 21-III. Musette
DR12 -5.30 dB -22.32 dB 1:02 22-IV. Sérénade
DR10 -5.08 dB -20.51 dB 0:37 23-V. Fanfare
DR11 -8.70 dB -22.62 dB 0:53 24-VI. Rondeau
DR12 -5.77 dB -21.84 dB 2:24 25-VII. Menuets
DR12 -7.04 dB -22.72 dB 1:01 26-VIII. Le Coucou
––––––––––––––––––––––––––––––––––––––––

Number of tracks: 8
Official DR value: DR11

Samplerate: 44100 Hz
Channels: 2
Bits per sample: 16
Bitrate: 549 kbps
Codec: FLAC
================================================================================



CD Info:

Darius Milhaud (1892-1974) - Ensemble Villa Musica - Kammer-Symphonien No. 1-6 / Suite D'Après Corrette / Les Rêves De Jacob

Label: MDG
Catalog#: L 3449
Format: CD, Album
Country: Germany
Released: 1992
Genre: Classical

Tracklist:

1 - 1. Symphonie (Le Printemps) op.43 - I. Allant 1:26
2 - 1. Symphonie (Le Printemps) op.43 - II. Chantant 1:26
3 - 1. Symphonie (Le Printemps) op.43 - III. Et Vif! 1:07
4 - 2. Symphonie (Pastorale) op.49 - I. Joyeux 1:09
5 - 2. Symphonie (Pastorale) op.49 - II. Calme 2:41
6 - 2. Symphonie (Pastorale) op.49 - III. Joyeux 1:13
7 - 3. Symphonie (Sérénade) op.71 - I. Vivement 1:14
8 - 3. Symphonie (Sérénade) op.71 - II. Calme 1:41
9 - 3. Symphonie (Sérénade) op.71 - III. Rondement 1:03
10 - 4. Symphonie (Dixtuor) op.74 - I. Ouverture. Animé 1:42
11 - 4. Symphonie (Dixtuor) op.74 - II. Choral. Assez lent 2:25
12 - 4. Symphonie (Dixtuor) op.74 - III.Etude 1:56
13 - 5. Symphonie (Dixtuor d'instruments à vent) op.75 - I. Rude 1:23
14 - 5. Symphonie (Dixtuor d'instruments à vent) op.75 - II. Lent 3:54
15 - 5. Symphonie (Dixtuor d'instruments à vent) op.75 - III. Violent 1:22
16 - 6. Symphonie op.79 - I. Calme et doux 3:14
17 - 6. Symphonie op.79 - II. Souple et Vif 1:43
18 - 6. Symphonie op.79 - III. Lent trés exprssif 2:49
19 - Suite d'après Corrette op.161b - I. Entrée et rondeau 1:32
20 - Suite d'après Corrette op.161b - II. Tambourin 0:24
21 - Suite d'après Corrette op.161b - III. Musette 0:51
22 - Suite d'après Corrette op.161b - IV. Sérénade 1:02
23 - Suite d'après Corrette op.161b - V. Fanfare 0:37
24 - Suite d'après Corrette op.161b - VI. Rondeau 0:53
25 - Suite d'après Corrette op.161b - VII. Menuets 2:24
26 - Suite d'après Corrette op.161b - VIII. Le Coucou 1:01
27 - Les Rêves de Jacob op.294 - I. Animé 2:58
28 - Les Rêves de Jacob op.294 - Mytérieux 5:27
29 - Les Rêves de Jacob op.294 - Modéré 2:41
30 - Les Rêves de Jacob op.294 - Modérément Animé 3:29
31 - Les Rêves de Jacob op.294 - Modérément Animé Solennel 2:43

Leitz, Susanne (Sopran)
Gmeiner, Ulrike (Alt)
Nennemann, Gerhart (Tenor)
Holthaus, Reiner (Bass)

Recorded: 01.-04.03., 30.09.1992, Fürstliche Reitbahn, Arolsen

Darius Milhaud (1892-1974) - Ensemble Villa Musica - Kammersymphonien No.1-6 (1992)


„Zusätzlicher Pluspunkt: Die wegweisende Interpretation dieser polytonalen Kostbarkeiten kommt auch noch in einem delikaten und ungekünstelten Klangbild daher: zauberhaft, süffig, ab und zu sogar ironisch-jazzig.” (Audio)

”Milhaud’s six little symphonies are brief, lighthearted experiments in sound combinations, and they are also very charming. These performances are delightful … precise, spirited, brilliant …
I don’t see how anyone could go wrong with these performances, which MDG captures in bright, characterful sound.” (Fanfare)


Philipp Scharwenka - Trio Parnassus - Piano Trios op.110 & op.112 / Cello Sonata op.116
Various Composers - Prof. Hans Michael Koch - La Guitarra Espanola 1546 - 1732
Peter Ruzicka - Chamber Music: Introspecione / Ausgeweidet Die Zeit… / Preludes / Stille
Thomas Tomkins (1572-1656) - Complete Keyboard Music Vol. 2
Thomas Tomkins (1572-1656) - Complete Keyboard Music Vol. 1
Waldemar Döling - Variationen für Cembalo / Variations for harpsichord
Robert Schumann - Rudolf Innig - Complete Organ Works
Various Composers - Sächsische Orgelmusik / Saxon Organ Music
Julius Reubke - Martin Sander, Claudius Tanski - Sonata on the 94th Psalm in C minor & Piano Sonata in B minor
John Cage - Steffen Schleiermacher - Complete Piano Music Vol. 1 - The Prepared Piano
Brandt & Böhme - Wolfgang Bauer - Music For Trumpet [CD Rip]
Brandt & Böhme - Wolfgang Bauer - Music For Trumpet [SACD Rip]
Dietrich Buxtehude - Harald Vogel - Complete Organ Works
Johann Melchior Molter - Orchestral & Chamber Music
Georg Philipp Telemann - Musica Alta Ripa - Concertos and Chamber Music
Schumann - Trio Parnassus / Hariolf Schlichtig - Piano Quartet [CD Rip]
Schumann - Trio Parnassus / Hariolf Schlichtig - Piano Quartet [SACD Rip]
Christoph Graupner - Orchestral Works Vol. 3
Christoph Graupner - Orchestral Works Vol. 2
Christoph Graupner - Orchestral Works Vol. 1
Johann Sebastian Bach - Musica Alta Ripa - Solo Concertos Vol. 1
Albert Lortzing - Neue Detmolder Liedertafel - An den Frühling: Ernste und heitere Festgesänge für Männerstimmen
Musicalische Compagney - Lamenti & Concerti: Liebe und Klage in der Musik von Heinrich Schutz (1585-1672)
Franz Liszt - Tanski / Beethoven Orchester Bonn - Tasso, Totentanz, Piano Music [CD Rip]
Franz Liszt - Tanski / Beethoven Orchester Bonn - Tasso, Totentanz, Piano Music [SACD Rip]
Ottorino Respighi - Pini di Roma / Trittico / Tre Corali [CD Rip]
Ottorino Respighi - Pini di Roma / Trittico / Tre Corali [SACD Rip]
Berliner Vokalensemble ''Carl Maria von Weber'' - Bella Ciao
Berliner Vokalensemble ''Carl Maria von Weber'' - Kein schöner Land
George Frideric Handel - Belshazzar [HWV 61] (3xCD)
George Frideric Handel - Saul [HWV 53] (3xCD)
Johannes Brahms - Hardy Rittner - Early Piano Works Vol.1 [CD Rip]
Johannes Brahms - Hardy Rittner - Early Piano Works Vol.2 [CD Rip]
Johannes Brahms - Hardy Rittner - Early Piano Works Vol.2 [SACD Rip]
Johannes Brahms / Robert Schumann - Mozart Piano Quartet - Piano Quartets
Wolfgang Amadeus Mozart / Leipziger Streichquartett - The Ten Celebrated String Quartets
Norbert Schultze - Drops …unter der Laterne

Darius Milhaud (1892-1974) - Ensemble Villa Musica - Kammersymphonien No.1-6 (1992)

// classical music \\
// all of my uploads \\
________________

Download:

Filepost FLAC
Filepost Artwork
________________