Subcategories

Milt Jackson - Milt Jackson At The Kosei Nenkin (1976) [Remastered 1998]

Posted By: Bezz
Milt Jackson - Milt Jackson At The Kosei Nenkin (1976) [Remastered 1998]

Milt Jackson - Milt Jackson At The Kosei Nenkin (1976) [Remastered 1998]
EAC rip | FLAC+CUE+LOG | Scans | 414 Mb(Incl. Recovery)
Genre ~ Hard Bop, Vibraphone/Marimba Jazz | Label ~ Pablo Records

This double album features vibraphonist Milt Jackson with some of his best musical friends (tenor-saxophonist Teddy Edwards, pianist Cedar Walton, bassist Ray Brown and drummer Billy Higgins) for a typically swinging set of standards. It is particularly welcome to hear the underrated Edwards in this setting and all of the musicians are in top form on such superior songs as "Killer Joe," "St. Thomas," "Bolivia" and "Bye Bye Blackbird." ~ AllMusic
Tracklist

01. Killer Joe (8:46)
02. Get Happy (4:03)
03. All Blues (10:22)
04. St. Thomas (8:14)
05. The Prophet Speaks (10:05)
06. Bolivia (7:18)
07. Birks' Works (7:19)
08. Stolen Moments (6:49)
09. Bye Bye Blackbird (10:50)

Exact Audio Copy V1.0 beta 3 from 29. August 2011

EAC extraction logfile from 7. November 2012, 4:40

Milt Jackson / At the Kosei Nenkin

Used drive : Memorex 52MAXX 3252AJ1 Adapter: 1 ID: 0

Read mode : Secure
Utilize accurate stream : Yes
Defeat audio cache : Yes
Make use of C2 pointers : No

Read offset correction : 6
Overread into Lead-In and Lead-Out : No
Fill up missing offset samples with silence : Yes
Delete leading and trailing silent blocks : No
Null samples used in CRC calculations : Yes
Used interface : Native Win32 interface for Win NT & 2000

Used output format : User Defined Encoder
Selected bitrate : 1024 kBit/s
Quality : High
Add ID3 tag : No
Command line compressor : C:\Program Files (x86)\Exact Audio Copy\wavpack.exe
Additional command line options : -w "Artist=%artist%" -w "Title=%title%" -w "Album=%albumtitle%" -w "Year=%year%" -w "Track=%tracknr%" -w "Genre=%genre%" -h %source% %dest%

TOC of the extracted CD

Track | Start | Length | Start sector | End sector
––––––––––––––––––––––––––––-
1 | 0:00.00 | 8:46.00 | 0 | 39449
2 | 8:46.00 | 4:03.00 | 39450 | 57674
3 | 12:49.00 | 10:21.42 | 57675 | 104291
4 | 23:10.42 | 8:14.35 | 104292 | 141376
5 | 31:25.02 | 10:05.28 | 141377 | 186779
6 | 41:30.30 | 7:18.27 | 186780 | 219656
7 | 48:48.57 | 7:19.00 | 219657 | 252581
8 | 56:07.57 | 6:49.18 | 252582 | 283274
9 | 62:57.00 | 10:50.10 | 283275 | 332034

Range status and errors

Selected range

Filename C:\Users\M@ce\Music\Archives\Rips\Milt Jackson - At the Kosei Nenkin.wav

Peak level 100.0 %
Extraction speed 9.6 X
Range quality 99.9 %
Test CRC 4ACA4760
Copy CRC 4ACA4760
Copy OK

No errors occurred

AccurateRip summary

Track 1 cannot be verified as accurate (confidence 2) [29753859], AccurateRip returned [4E7B698B] (AR v2)
Track 2 cannot be verified as accurate (confidence 2) [CCD4532D], AccurateRip returned [8CB85A47] (AR v2)
Track 3 cannot be verified as accurate (confidence 2) [422D2CF2], AccurateRip returned [EC2ABCD7] (AR v2)
Track 4 cannot be verified as accurate (confidence 2) [1C68F150], AccurateRip returned [3C5FDD1C] (AR v2)
Track 5 cannot be verified as accurate (confidence 2) [AAE7F2B3], AccurateRip returned [476E88BF] (AR v2)
Track 6 cannot be verified as accurate (confidence 2) [7E59C730], AccurateRip returned [B5B68A4B] (AR v2)
Track 7 cannot be verified as accurate (confidence 2) [FED2C253], AccurateRip returned [45EB4054] (AR v2)
Track 8 cannot be verified as accurate (confidence 2) [8A9905F4], AccurateRip returned [BD3111E3] (AR v2)
Track 9 cannot be verified as accurate (confidence 2) [8695E06F], AccurateRip returned [10E41015] (AR v2)

No tracks could be verified as accurate
You may have a different pressing from the one(s) in the database

End of status report

–– CUETools DB Plugin V2.1.4

[CTDB TOCID: _nJ5F.AxLY9bEUZGFyjw1Qf7C_w-] found
Submit result: _nJ5F.AxLY9bEUZGFyjw1Qf7C_w- has been confirmed
Track | CTDB Status
1 | (1/1) Accurately ripped
2 | (1/1) Accurately ripped
3 | (1/1) Accurately ripped
4 | (1/1) Accurately ripped
5 | (1/1) Accurately ripped
6 | (1/1) Accurately ripped
7 | (1/1) Accurately ripped
8 | (1/1) Accurately ripped
9 | (1/1) Accurately ripped

==== Log checksum 89470C70CAC78813E2212F4F124FFE180B11BE6D2BFD64183C9051CDACCFB945 ====

Milt Jackson - Milt Jackson At The Kosei Nenkin (1976) [Remastered 1998]

Milt Jackson - Milt Jackson At The Kosei Nenkin (1976) [Remastered 1998]

Special thanks to RunawayTrane and papa1954!

Welcome to my blog for more wonderful music

PLEASE DO NOT PROVIDE MIRROR LINKS!