Subcategories

Milt Jackson - Jackson's Ville (1956) {Savoy Jazz Japan SV-0175 rel 1992}

Posted By: ruskaval
Milt Jackson - Jackson's Ville (1956) {Savoy Jazz Japan SV-0175 rel 1992}

Milt Jackson - Jackson's Ville (1956) {Savoy Jazz Japan SV-0175 rel 1992}
EAC rip (secure mode) | FLAC (tracks)+CUE+LOG -> 119 Mb | MP3 @320 -> 73 Mb
Full Artwork @ 300 dpi (png) -> 16 Mb | 5% repair rar
© 1956, 1992 Savoy Jazz / Denon Records / Nippon Columbia Japan | SV-0175
Jazz / Bop / Hard Bop / Jazz Blues / Vibes

This fine 1956 date features Jackson leading a session that moves with ease and authority through a relaxing eight-minute ride on Charlie Parker's "Now's the Time," an Ellington ballad medley, and a pair of the vibist's own blues-based, hard bop compositions. The real treat here is Lucky Thompson's tenor sax. The Don Byas-influenced Thompson has a sound that invites the listener to luxuriate in its grace and strength. Thompson solos on "Mood Indigo" with a sublime, breathy legato, adding bite and rougher edges – without sacrificing nuance or subtlety – on Jackson's "Minor Conception" and "Soul in 3/4."

For his part, Jackson reels off a fluid stream of shifting, seamless, advanced blues – his time, phrasing, and execution all exquisite. In the rhythm section, Hank Jones (piano), Wendell Marshall (bass), and Kenny Clarke (drums) support with the ego-free artistry expected of the Savoy house band of the day. Jackson's Ville is one of four Savoy CDs that pair Jackson with Thompson. The others are The Jazz Skyline, Roll 'em Bags, and Meet Milt Jackson. Each on its own is short measure (Jackson's Ville clocks in at 30 minutes). As a collection, though, they comprise a vital document that sits nicely alongside Jackson's and Thompson's work with Miles Davis from this period.
Milt Jackson - Jackson's Ville (1956) {Savoy Jazz Japan SV-0175 rel 1992}


Personnel
Milt Jackson - vibes
Lucky Thompson - tenor sax
Hank Jones - piano
Wendell Marshall - bass
Kenny Clarke - drums

Recorded: January 23, 1956

Track Listing
01 - Now's The Time
02 - In A Sentimental Mood / Mood Indigo / Azure
03 - Minor Conception
04 - Soul In 3/4

Exact Audio Copy V0.99 prebeta 4 from 23. January 2008

EAC extraction logfile from 27. September 2009, 12:04

Milt Jackson / Jackson's-Ville

Used drive : TSSTcorpCDDVDW SH-S203N Adapter: 0 ID: 2

Read mode : Secure
Utilize accurate stream : Yes
Defeat audio cache : Yes
Make use of C2 pointers : No

Read offset correction : 6
Overread into Lead-In and Lead-Out : No
Fill up missing offset samples with silence : Yes
Delete leading and trailing silent blocks : No
Null samples used in CRC calculations : Yes
Used interface : Installed external ASPI interface
Gap handling : Appended to previous track

Used output format : User Defined Encoder
Selected bitrate : 768 kBit/s
Quality : High
Add ID3 tag : No
Command line compressor : C:\Program Files\Exact Audio Copy\Flac\flac.exe
Additional command line options : -8 -V -T "ARTIST=%a" -T "TITLE=%t" -T "ALBUM=%g" -T "DATE=%y" -T "TRACKNUMBER=%n" -T "TOTALTRACKS=%x" -T "GENRE=%m" -T "ALBUMARTIST=%v" -T "ALBUM ARTIST=%v" -T "COMMENT=EAC V0.99 pb4, Secure Mode, Test & Copy, AccurateRip,


TOC of the extracted CD

Track | Start | Length | Start sector | End sector
––––––––––––––––––––––––––––-
1 | 0:00.00 | 8:19.70 | 0 | 37494
2 | 8:19.70 | 6:50.43 | 37495 | 68287
3 | 15:10.38 | 8:40.57 | 68288 | 107344
4 | 23:51.20 | 6:41.18 | 107345 | 137437


Track 1

Filename J:\New Rips\Milt Jackson - Jackson's-Ville (1956) [FLAC] {Savoy Jazz}\01 - Now's The Time.wav

Pre-gap length 0:00:02.00

Peak level 96.2 %
Track quality 100.0 %
Test CRC F78F12E3
Copy CRC F78F12E3
Cannot be verified as accurate (confidence 2) [62190575], AccurateRip returned [64B4B188]
Copy OK

Track 2

Filename J:\New Rips\Milt Jackson - Jackson's-Ville (1956) [FLAC] {Savoy Jazz}\02 - In A Sentimental Mood.wav

Pre-gap length 0:00:02.69

Peak level 64.3 %
Track quality 100.0 %
Test CRC 63ED82F3
Copy CRC 63ED82F3
Cannot be verified as accurate (confidence 2) [59FA94F1], AccurateRip returned [F832894F]
Copy OK

Track 3

Filename J:\New Rips\Milt Jackson - Jackson's-Ville (1956) [FLAC] {Savoy Jazz}\03 - Minor Conception.wav

Pre-gap length 0:00:06.06

Peak level 95.0 %
Track quality 100.0 %
Test CRC C23B13D5
Copy CRC C23B13D5
Cannot be verified as accurate (confidence 2) [5FB6FBAE], AccurateRip returned [927E858E]
Copy OK

Track 4

Filename J:\New Rips\Milt Jackson - Jackson's-Ville (1956) [FLAC] {Savoy Jazz}\04 - Soul In 3,4.wav

Pre-gap length 0:00:03.49

Peak level 76.4 %
Track quality 100.0 %
Test CRC 2B3FCECE
Copy CRC 2B3FCECE
Cannot be verified as accurate (confidence 2) [C424A92B], AccurateRip returned [CC2D9429]
Copy OK


No tracks could be verified as accurate
You may have a different pressing from the one(s) in the database

No errors occurred

End of status report


Milt Jackson - Jackson's Ville (1956) {Savoy Jazz Japan SV-0175 rel 1992}

Milt Jackson - Jackson's Ville (1956) {Savoy Jazz Japan SV-0175 rel 1992}



===