Subcategories

Mimis Plessas - The street (Remastered edition, 2011)

Posted By: Speedyclick
Mimis Plessas - The street (Remastered edition, 2011)

Mimis Plessas - The street (Remastered edition, 2011)
EAC Rip | FLAC (image & cue & log) & mp3 @ 320 kbps | tracks: 12 | ~ 248 & 96 Mb | 33:10 | Scans
Label: LYRA | 5% recovery record | First release: 1969 | Genre: Greek folk songs, bouzouki

"The street" (O dromos) is the album with more sales than any other in the Greek musical history. It was released in 1969, during the military junta by the prominent composer and excellent jazz pianist, Mimis Plessas, with main singer the young and talented Yiannis Poulopoulos. The lyrics are of Lefteris Papadopoulos, the most popular and productive lyricist with a career of more than 40 years. Together with Yiannis Poulopoulos, you will hear two female singers, Rena Koumioti and in the second track, the young representative of the "New Wave" greek ballad style, Popi Asteriadi. A collector's item, fully remastered in a fresh, 2011 edition.

TRACKLIST
01. Yiannis Poulopoulos - Maria was laughing (Gelage i Maria)
02. Popi Asteriadi & Yiannis Poulopoulos - Fragoklissa
03. Yiannis Poulopoulos - My girl is drunk tonight (Methisa apopse to koritsi mou)
04. Yiannis Poulopoulos - The fool (O trelos)
05. Rena Koumioti - First time (Proti fora)
06. Yiannis Poulopoulos - I got two bolts of cloud (Pira sinefo dio topia)
07. Yiannis Poulopoulos - Sunday is breaking (Ximeroni Kiriaki)
08. Yiannis Poulopoulos - Mirsini wears a white dress (I Mirsini vazi t' aspra)
09. Yiannis Poulopoulos - Twelve mandolins (Dodeka mandolina)
10. Yiannis Poulopoulos - The statue (To agalma)
11. Rena Koumioti - Give me your mouth (Dose mou to stoma sou)
12. Yiannis Poulopoulos - The silence was deep (Epefte vathia siopi)

Exact Audio Copy V1.0 beta 1 from 15. November 2010

EAC extraction logfile from 29. June 2011, 3:30

Various / Mimis Plessas - O Dromos

Used drive : HL-DT-STDVDRAM GH10N Adapter: 3 ID: 0

Read mode : Secure
Utilize accurate stream : Yes
Defeat audio cache : Yes
Make use of C2 pointers : No

Read offset correction : 667
Overread into Lead-In and Lead-Out : No
Fill up missing offset samples with silence : Yes
Delete leading and trailing silent blocks : No
Null samples used in CRC calculations : Yes
Used interface : Native Win32 interface for Win NT & 2000

Used output format : User Defined Encoder
Selected bitrate : 1024 kBit/s
Quality : High
Add ID3 tag : No
Command line compressor : C:\Program Files\FLAC\flac.exe
Additional command line options : -V -5 -T "artist=%a" -T "title=%t" -T "album=%g" -T "date=%y" -T "tracknumber=%n" -T "genre=%m" -5 %s


TOC of the extracted CD

Track | Start | Length | Start sector | End sector
––––––––––––––––––––––––––––-
1 | 0:00.00 | 2:10.45 | 0 | 9794
2 | 2:10.45 | 2:51.45 | 9795 | 22664
3 | 5:02.15 | 3:12.66 | 22665 | 37130
4 | 8:15.06 | 1:52.44 | 37131 | 45574
5 | 10:07.50 | 2:16.41 | 45575 | 55815
6 | 12:24.16 | 2:23.35 | 55816 | 66575
7 | 14:47.51 | 3:19.13 | 66576 | 81513
8 | 18:06.64 | 2:34.09 | 81514 | 93072
9 | 20:40.73 | 2:10.38 | 93073 | 102860
10 | 22:51.36 | 3:25.09 | 102861 | 118244
11 | 26:16.45 | 3:10.25 | 118245 | 132519
12 | 29:26.70 | 3:43.58 | 132520 | 149302


Range status and errors

Selected range

Filename U:\EAC Rips\GREEK\Mimis Plessas - O Dromos\Various - Mimis Plessas - O Dromos.wav

Peak level 100.0 %
Extraction speed 0.5 X
Range quality 100.0 %
Test CRC ED083D3C
Copy CRC ED083D3C
Copy OK

No errors occurred


AccurateRip summary

Track 1 not present in database
Track 2 not present in database
Track 3 not present in database
Track 4 not present in database
Track 5 not present in database
Track 6 not present in database
Track 7 not present in database
Track 8 not present in database
Track 9 not present in database
Track 10 not present in database
Track 11 not present in database
Track 12 not present in database

None of the tracks are present in the AccurateRip database

End of status report

==== Log checksum D2DB9DD2AB466B304BF6666915723FADC77A2AA6BFC970F51F0C9E4BB554B9AD ====