Subcategories

Kosuke Mine with Kimiko Kasai - Yellow Carcass In The Blue (1971) {2013 Japan Three Blind Mice Mini LP Blu-spec Remaster}

Posted By: ruskaval
Kosuke Mine with Kimiko Kasai - Yellow Carcass In The Blue (1971) {2013 Japan Three Blind Mice Mini LP Blu-spec Remaster}

Kosuke Mine with Kimiko Kasai - Yellow Carcass In The Blue (1971) {2013 Japan Three Blind Mice Mini LP Blu-spec Remaster}
EAC rip (secure mode) | FLAC (tracks)+CUE+LOG -> 320 Mb | MP3 @320 -> 110 Mb
Full Artwork @ 300 dpi (png) -> 30 Mb | 5% repair rar
© 2013 Three Blind Mice / Sony Music Japan | THCD-237 | LP TBM-8
Jazz / Hard Bop / Modal Music / Vocal Jazz / Contemporary Jazz

Three Blind Mice Blu-spec CD reissue series. Limited paper sleeve edition. Yellow Carcass in the Blue is considered an important album by talented singer Kimiko Kasai in which she really began to show her original qualities. At the same time, as the "double bill" credit suggests, it was also a showcase for the Kosuke Mine Quartet, which plays two tunes on their own.

Kasai's slightly husky, soulful voice swings in the surprisingly fast opener, "Alone Together." She also wrote the lyrics on two songs: "Blues in C Minor" and "Yellow Carcass in the Blue." The latter was an instrumental composition by Masabumi Kikuchi, the talented, free-leaning pianist, to which Kasai wrote Japanese lyrics. They were ultimately translated into English and that was the version Kasai sang here.

On the two instrumental numbers, Kosuke Mine and his young cohorts (virtual all-stars) take off to great heights and challenge the listener, showing that they had digested everything from bop, modal playing and free jazz.

Produced by Takeshi Fujii. Recorded at Aoi Studio, Tokyo, in July 1971 by Yoshihiko Kannnari.
Kosuke Mine with Kimiko Kasai - Yellow Carcass In The Blue (1971) {2013 Japan Three Blind Mice Mini LP Blu-spec Remaster}


Personnel:
Kimiko Kasai (vocal)
Kosuke Mine (alto sax,soprano sax)
Masahiro Kikuchi (piano)
Yoshio "Chin" Suzuki (bass)
Hiroshi Murakami (drums)

tracklist:
01 - Alone Together
02 - Blues in C Minor
03 - River Dry
04 - Round Midnight
05 - Yellow Carcass In The Blue
06 - Be Still, My Soul

Exact Audio Copy V1.0 beta 3 from 29. August 2011

EAC extraction logfile from 10. March 2014, 14:59

Kosuke Mine with Kimiko Kasai / Yellow Carcass In The Blue

Used drive : PLEXTOR CD-R PX-W2410A Adapter: 1 ID: 0

Read mode : Secure
Utilize accurate stream : Yes
Defeat audio cache : Yes
Make use of C2 pointers : No

Read offset correction : 98
Overread into Lead-In and Lead-Out : No
Fill up missing offset samples with silence : Yes
Delete leading and trailing silent blocks : No
Null samples used in CRC calculations : Yes
Used interface : Native Win32 interface for Win NT & 2000
Gap handling : Appended to previous track

Used output format : User Defined Encoder
Selected bitrate : 256 kBit/s
Quality : High
Add ID3 tag : No
Command line compressor : C:\Program Files\Exact Audio Copy\FLAC\FLAC.EXE
Additional command line options : -8 -V -T "ARTIST=%artist%" -T "TITLE=%title%" -T "ALBUM=%albumtitle%" -T "DATE=%year%" -T "TRACKNUMBER=%tracknr%" -T "TOTALTRACKS=%numtracks%" -T "GENRE=%genre%" -T "ALBUMARTIST=%albumartist%" -T "ALBUM ARTIST=%albumartist%" -T "COMMENT=EAC Secure Mode, Test & Copy, AccurateRip, FLAC -8" %source%


TOC of the extracted CD

Track | Start | Length | Start sector | End sector
––––––––––––––––––––––––––––-
1 | 0:00.00 | 3:18.34 | 0 | 14883
2 | 3:18.34 | 6:07.48 | 14884 | 42456
3 | 9:26.07 | 13:05.40 | 42457 | 101371
4 | 22:31.47 | 9:14.60 | 101372 | 142981
5 | 31:46.32 | 7:44.73 | 142982 | 177854
6 | 39:31.30 | 7:33.02 | 177855 | 211831


Track 1

Filename D:\EAC\Kosuke Mine with Kimiko Kasai - Yellow Carcass In The Blue (1971) [FLAC] {2013 Three Blind Mice TBM-8}\01 - Alone Together.wav

Pre-gap length 0:00:02.00

Peak level 97.9 %
Extraction speed 1.8 X
Track quality 100.0 %
Test CRC 31193735
Copy CRC 31193735
Accurately ripped (confidence 1) [10BA7D61] (AR v2)
Copy OK

Track 2

Filename D:\EAC\Kosuke Mine with Kimiko Kasai - Yellow Carcass In The Blue (1971) [FLAC] {2013 Three Blind Mice TBM-8}\02 - Blues in C Minor.wav

Pre-gap length 0:00:02.24

Peak level 97.9 %
Extraction speed 1.9 X
Track quality 100.0 %
Test CRC 2FF7680F
Copy CRC 2FF7680F
Accurately ripped (confidence 1) [8BAAB251] (AR v2)
Copy OK

Track 3

Filename D:\EAC\Kosuke Mine with Kimiko Kasai - Yellow Carcass In The Blue (1971) [FLAC] {2013 Three Blind Mice TBM-8}\03 - River Dry.wav

Pre-gap length 0:00:03.25

Peak level 97.9 %
Extraction speed 1.9 X
Track quality 100.0 %
Test CRC CC85DE34
Copy CRC CC85DE34
Accurately ripped (confidence 1) [9AE7EC07] (AR v2)
Copy OK

Track 4

Filename D:\EAC\Kosuke Mine with Kimiko Kasai - Yellow Carcass In The Blue (1971) [FLAC] {2013 Three Blind Mice TBM-8}\04 - Round Midnight.wav

Pre-gap length 0:00:02.25

Peak level 97.9 %
Extraction speed 1.9 X
Track quality 100.0 %
Test CRC 17959228
Copy CRC 17959228
Accurately ripped (confidence 1) [A36004CC] (AR v2)
Copy OK

Track 5

Filename D:\EAC\Kosuke Mine with Kimiko Kasai - Yellow Carcass In The Blue (1971) [FLAC] {2013 Three Blind Mice TBM-8}\05 - Yellow Carcass In The Blue.wav

Pre-gap length 0:00:02.57

Peak level 97.9 %
Extraction speed 1.9 X
Track quality 100.0 %
Test CRC 131BFE8C
Copy CRC 131BFE8C
Accurately ripped (confidence 1) [68D11380] (AR v2)
Copy OK

Track 6

Filename D:\EAC\Kosuke Mine with Kimiko Kasai - Yellow Carcass In The Blue (1971) [FLAC] {2013 Three Blind Mice TBM-8}\06 - Be Still, My Soul.wav

Pre-gap length 0:00:05.08

Peak level 97.9 %
Extraction speed 1.7 X
Track quality 100.0 %
Test CRC 70D24E68
Copy CRC 70D24E68
Accurately ripped (confidence 1) [BE68F485] (AR v2)
Copy OK


All tracks accurately ripped

No errors occurred

End of status report

–– CUETools DB Plugin V2.1.3

[CTDB TOCID: RpavTY6lCcElRPOJVJ3Di1BkG3U-] found, Submit result: RpavTY6lCcElRPOJVJ3Di1BkG3U- has been confirmed
[41dd4056] (1/1) Accurately ripped


==== Log checksum 3B430F49601A5BE97B51573B5A13EBC0BB290F269B51236BB68DFF486EDC60E0 ====


Kosuke Mine with Kimiko Kasai - Yellow Carcass In The Blue (1971) {2013 Japan Three Blind Mice Mini LP Blu-spec Remaster}

Kosuke Mine with Kimiko Kasai - Yellow Carcass In The Blue (1971) {2013 Japan Three Blind Mice Mini LP Blu-spec Remaster}


All thanks goes to the original releaser!

More Japan Three Blind Mice Mini LP Blu-spec Remaster:
Tsuyoshi Yamamoto Trio - Girl Talk (1975) {2013 Japan Three Blind Mice Mini LP Blu-spec Remaster}
Isao Suzuki Sextet - Ako's Dream (1976) {2013 Japan Three Blind Mice Mini LP Blu-spec Remaster}


NEXT -> More Japan Three Blind Mice Mini LP Blu-spec Remaster on the way…