Subcategories

Miss A - Good-bye Baby (2011)

Posted By: Mendose
Miss A - Good-bye Baby (2011)

Miss A - Good-bye Baby (2011)
Korean | MP4 | *1080p* + *720p* | AVC | AAC | 5:36 min | 191 + 99.8 MB
1080p: 1920x1080 | 29.970 fps | AVC 4620 Kbps | AAC 152 Kbps
720p: 1280x720 | 24.000 fps | AVC 2323 Kbps | AAC 152 Kbps
Korean Pop


Miss A, commonly stylized as miss A, is a South Korean-Chinese girl group created by JYP Entertainment through their sub-label AQ Entertainment.

Format : MPEG-4
Format profile : Base Media / Version 2
Codec ID : mp42
File size : 191 MiB
Duration : 5mn 35s
Overall bit rate : 4 779 Kbps

Video
ID : 1
Format : AVC
Format/Info : Advanced Video Codec
Format profile : High@L4.0
Format settings, CABAC : Yes
Format settings, ReFrames : 1 frame
Format settings, GOP : M=1, N=60
Codec ID : avc1
Codec ID/Info : Advanced Video Coding
Duration : 5mn 35s
Bit rate mode : Variable
Bit rate : 4 620 Kbps
Maximum bit rate : 11.6 Mbps
Width : 1 920 pixels
Height : 1 080 pixels
Display aspect ratio : 16:9
Frame rate mode : Variable
Frame rate : 29.970 fps
Minimum frame rate : 29.412 fps
Maximum frame rate : 200.000 fps
Color space : YUV
Chroma subsampling : 4:2:0
Bit depth : 8 bits
Scan type : Progressive
Bits/(Pixel*Frame) : 0.074
Stream size : 185 MiB (97%)

Audio
ID : 2
Format : AAC
Format/Info : Advanced Audio Codec
Format profile : LC
Codec ID : 40
Duration : 5mn 35s
Bit rate mode : Variable
Bit rate : 152 Kbps
Maximum bit rate : 203 Kbps
Channel(s) : 2 channels
Channel positions : Front: L R
Sampling rate : 44.1 KHz
Compression mode : Lossy
Stream size : 6.10 MiB (3%)


Format : MPEG-4
Format profile : Base Media / Version 2
Codec ID : mp42
File size : 99.8 MiB
Duration : 5mn 37s
Overall bit rate : 2 481 Kbps

Video
ID : 1
Format : AVC
Format/Info : Advanced Video Codec
Format profile : High@L3.1
Format settings, CABAC : Yes
Format settings, ReFrames : 1 frame
Format settings, GOP : M=1, N=48
Codec ID : avc1
Codec ID/Info : Advanced Video Coding
Duration : 5mn 37s
Bit rate mode : Variable
Bit rate : 2 323 Kbps
Maximum bit rate : 6 155 Kbps
Width : 1 280 pixels
Height : 720 pixels
Display aspect ratio : 16:9
Frame rate mode : Variable
Frame rate : 24.000 fps
Minimum frame rate : 23.810 fps
Maximum frame rate : 24.390 fps
Color space : YUV
Chroma subsampling : 4:2:0
Bit depth : 8 bits
Scan type : Progressive
Bits/(Pixel*Frame) : 0.105
Stream size : 93.5 MiB (94%)

Audio
ID : 2
Format : AAC
Format/Info : Advanced Audio Codec
Format profile : LC
Codec ID : 40
Duration : 5mn 37s
Bit rate mode : Variable
Bit rate : 152 Kbps
Maximum bit rate : 220 Kbps
Channel(s) : 2 channels
Channel positions : Front: L R
Sampling rate : 44.1 KHz
Compression mode : Lossy
Stream size : 6.10 MiB (6%)


Screenshots:

Miss A - Good-bye Baby (2011)

Miss A - Good-bye Baby (2011)

Miss A - Good-bye Baby (2011)

Miss A - Good-bye Baby (2011)



Please send me PM if any of my links is broken.

[ MY BLOG ] | [ RSS Channel ]