Subcategories

Modern Talking - Alone - The 8th Album [RePost]

Posted By: FLESH
Modern Talking - Alone - The 8th Album [RePost]

Modern Talking - Alone - The 8th Album
Electronic, Euro House, Synth-pop
FLAC+cue+log | 537.8 Mb | MP3, 192 Kbps | 104.57 Mb | Covers
Label: Hansa | Catalog#: 74321 63801 2 | Country: Germany | Released: 22 Feb 1999

Tracklisting:
1 You Are Not Alone (3:41)
2 Sexy, Sexy Lover (3:33)
3 I Can't Give You More (3:41)
4 Just Close Your Eyes (4:17)
5 Don't Let Me Go (3:20)
6 I'm So Much In Love (3:53)
7 Rouge Et Noir (3:14)
8 All I Have (4:20)
9 Can't Get Enough (3:35)
10 Love Is Like A Rainbow (3:58)
11 How You Mend A Broken Heart (4:14)
12 It Hurts So Good (3:22)
13 I'll Never Give You Up (3:26)
14 Don't Let Me Down (3:57)
15 Taxi Girl (3:09)
16 For Always And Ever (3:22)
17 Space Mix (The Ultimate Nonstop Mix) (17:14)

Exact Audio Copy V0.99 prebeta 3 from 28. July 2007

Отчёт EAC об извлечении, выполненном 22. декабря 2007, 0:01

Modern Talking / Alone (The 8th Album)

Дисковод: PLEXTOR DVDR PX-716AL Adapter: 2 ID: 0

Режим чтения : Достоверность
Использование точного потока : Да
Отключение кэша аудио : Да
Использование указателей C2 : Нет

Коррекция смещения при чтении : 30
Способность читать области Lead-in и Lead-out : Нет
Заполнение пропущенных сэмплов тишиной : Да
Удаление блоков с тишиной в начале и конце : Нет
При вычислениях CRC использовались нулевые сэмплы : Да
Интерфейс : Встроенный Win32-интерфейс для Win NT/2000

Выходной формат : Внутренние WAV-операции
Формат сэмплов : 44.100 Гц; 16 бит; стерео


TOC извлечённого CD

Трек | Старт | Длительность | Начальный сектор | Конечный сектор
––––––––––––––––––––––––––––––––––-
1 | 0:00.32 | 3:43.65 | 32 | 16821
2 | 3:44.22 | 3:35.30 | 16822 | 32976
3 | 7:19.52 | 3:42.68 | 32977 | 49694
4 | 11:02.45 | 4:21.17 | 49695 | 69286
5 | 15:23.62 | 3:23.18 | 69287 | 84529
6 | 18:47.05 | 3:56.27 | 84530 | 102256
7 | 22:43.32 | 3:18.13 | 102257 | 117119
8 | 26:01.45 | 4:24.02 | 117120 | 136921
9 | 30:25.47 | 3:38.43 | 136922 | 153314
10 | 34:04.15 | 4:00.17 | 153315 | 171331
11 | 38:04.32 | 4:18.13 | 171332 | 190694
12 | 42:22.45 | 3:24.50 | 190695 | 206044
13 | 45:47.20 | 3:29.07 | 206045 | 221726
14 | 49:16.27 | 3:59.70 | 221727 | 239721
15 | 53:16.22 | 3:11.10 | 239722 | 254056
16 | 56:27.32 | 3:25.00 | 254057 | 269431
17 | 59:52.32 | 17:15.00 | 269432 | 347056


Характеристики диапазона извлечения и сообщения об ошибках

Выбранный диапазон

Имя файла Z:\Temp\Modern Talking\8.1999.Alone (The 8th Album)\Modern Talking - Alone (The 8th Album).wav

Пиковый уровень 100.0 %
Качество диапазона 100.0 %
CRC копии 6DD302FD
Копирование… OK

Ошибок не произошло

Конец отчёта



FLAC
Vip-file
Vip-file
DepositFiles
Part 1 | Part 2 | Part 3 | Part 4 | Part 5 | Part 6

MP3
Vip-file
Vip-file
DepositFiles
Part 1 | Part 2

Covers