Subcategories
Please register here if you want to download anything!

If domain in your address bar is different from the list below
PLEASE LEAVE THAT SITE IMMEDIATELY
❗IT'S A DANGEROUS FAKE❗



Spicy Magazines for Men! ;-)

Molly Hatchet - Self-titled (1978)

Posted By: Rehabilly
Molly Hatchet - Self-titled (1978)

MOLLY HATCHET - Molly Hatchet
1978 | WV+CUE+LOG | Covers | 234 MB
Genre: Southern Rock

Molly Hatchet comes out of the chute kicking and screaming on this, the band's debut effort. With obvious influences including fellow Floridians Lynyrd Skynyrd, as well as the Allman Brothers, Mountain, and any number of other hard rock bands, Hatchet didn't take long to catch on with what would become legions of fans…

Tracklist:

01. Bounty Hunter
02. Gator Country
03. Big Apple
04. The Creeper
05. The Price You Pay
06. Dreams I'll Never See
07. I'll Be Running
08. Cheatin' Woman
09. Trust Your Old Friend

Exact Audio Copy V0.99 prebeta 4 from 23. January 2008

EAC extraction logfile from 4. March 2008, 18:18

Molly Hatchet / Molly Hatchet

Used drive : PLEXTOR CD-R PREMIUM2 Adapter: 1 ID: 1

Read mode : Secure
Utilize accurate stream : Yes
Defeat audio cache : Yes
Make use of C2 pointers : No

Read offset correction : 30
Overread into Lead-In and Lead-Out : Yes
Fill up missing offset samples with silence : Yes
Delete leading and trailing silent blocks : No
Null samples used in CRC calculations : Yes
Used interface : Installed external ASPI interface

Used output format : Internal WAV Routines
Sample format : 44.100 Hz; 16 Bit; Stereo


TOC of the extracted CD

Track | Start | Length | Start sector | End sector
––––––––––––––––––––––––––––-
1 | 0:00.00 | 2:59.25 | 0 | 13449
2 | 2:59.25 | 6:17.00 | 13450 | 41724
3 | 9:16.25 | 3:03.00 | 41725 | 55449
4 | 12:19.25 | 3:20.00 | 55450 | 70449
5 | 15:39.25 | 3:04.72 | 70450 | 84321
6 | 18:44.22 | 7:08.03 | 84322 | 116424
7 | 25:52.25 | 3:02.00 | 116425 | 130074
8 | 28:54.25 | 3:37.00 | 130075 | 146349
9 | 32:31.25 | 3:55.25 | 146350 | 163999


Range status and errors

Selected range

Filename C:\200\1978- Molly Hatchet\Molly Hatchet - Molly Hatchet.wav

Peak level 86.1 %
Range quality 100.0 %
Test CRC AAF52DC4
Copy CRC AAF52DC4
Copy OK

No errors occurred


AccurateRip summary

Track 1 not present in database
Track 2 not present in database
Track 3 not present in database
Track 4 accurately ripped (confidence 1) [05A95AF6]
Track 5 accurately ripped (confidence 1) [1D07408F]
Track 6 not present in database
Track 7 accurately ripped (confidence 1) [3991EBBC]
Track 8 accurately ripped (confidence 1) [107D7FF9]
Track 9 accurately ripped (confidence 1) [DD607E40]

5 track(s) accurately ripped
4 track(s) not present in the AccurateRip database

Some tracks could not be verified as accurate

End of status report

Produced by Tom Werman
Recorded at The Sound Pit, Atlanta, Georgia

• Danny Joe Braun - lead vocals
• Duane Roland - guitar
• Dave Hlubek - guitar
• Steve Holland - guitar
• Banner Thomas - bass
• Bruce Crump - drums

Original Release Date: 1978
Release Date: "October 25, 1990"
Format: Original Recording
Label: Epic Records (CBS)
Catalog No.: EK 35347-2