Subcategories

Mongo Santamaria - Skins (1962-64) {Milestone MCD-47038-2 rel 1989}

Posted By: ruskaval
Mongo Santamaria - Skins (1962-64) {Milestone MCD-47038-2 rel 1989}

Mongo Santamaria - Skins (1962-64) {Milestone MCD-47038-2 rel 1989}
EAC rip (secure mode) | FLAC (tracks)+CUE+LOG -> 482 Mb | MP3 @320 -> 183 Mb
Full Artwork @ 300 dpi (jpg) -> 14 Mb | 5% repair rar
© 1962, 1964, 1989 Riverside / Milestone / Fantasy | MCD-47038-2
Jazz / Latin Jazz / Soul Jazz / Afro-Cuban Jazz / Boogaloo / Bongos / Congas

This single CD has all of the contents of the two Mongo Santamaria Riverside albums originally titled Mongo Explodes and Go, Mongo! The music was last available as a two-LP set also titled Skins. The 1964 session, oddly programmed first, finds Santamaria on conga and bongos at the head of a ten-piece band also including trumpeter Marty Sheller, then-unknown flutist Hubert Laws (also featured on piccolo and tenor), Bobby Capers on alto and baritone, and a seven-piece rhythm section with five percussionists.

Cornetist Nat Adderley guests on three of the ten numbers, which are all group originals, including four songs from Sheller. The early dates (Mongo's first as the leader of a fairly jazz-oriented Latin group) have Santamaria leading a completely different band, a nonet with just three percussionists. Most notable among the personnel are the young Chick Corea on piano and Pat Patrick, on leave from Sun Ra's band, as one of the two saxophonists. This time around, Mongo contributed four of the nine fairly obscure numbers. Although some of the songs on the 1964 date were put together in hopes of duplicating the commercial success of "Watermelon Man" (none succeeded), the music still sounds fairly fresh and lively. An excellent introduction to Mongo Santamaria's viable brand of Afro-Cuban jazz.
Mongo Santamaria - Skins (1962-64) {Milestone MCD-47038-2 rel 1989}


Musicians
Bongos, Congas Mongo Santamaria
Cornet Nat Adderley
Percussion, Trumpet Marty Sheller
Flute, Piccolo, Saxophone Hubert Laws
Saxophone Bobby Capers
Piano Rodgers Grant
Bass Victor Venegas
Drums Ray Lucas
Drums Jimmy Cobb
Drums, Timbales Hungaria "Carmelo" Garcia
Percussion Chihuahua Martinez
Percussion Wito Kortwright
Trumpet Paul Serrano
Saxophone Pat Patrick
Saxophone Al Abreu
Piano Chick Corea
Guitar, Percussion Jose De Paulo
Timbales Julio Collazo
Percussion "To-Tiko"
Vocals Carmen Costa
Vocals Marcellino Guerra
Vocals Elliot Romero

Credits
Producer Orrin Keepnews
Engineer Ray Fowler
Liner Notes Orrin Keepnews


tracklist:
Mongo Explodes (Riverside 3530) 39:51

01 Skins 03:33
02 Fatback 02:31
03 Hammer Head 03:27
04 Dot, Dot, Dot 05:09
05 Dirty Willie 05:26
06 Sweet 'Tater Pie 02:42
07 Bembй Blue 06:40
08 Dulce Amore 05:09
09 Tacos 02:35
10 Corn Bread Guajira 02:39

Go, Mongo! (Riverside 423) 38:01
11 Tumba Le Le 04:17
12 Happy Now 03:10
13 Country Song 03:28
14 Congo Blue 05:46
15 Carmela 05:24
16 Hombre 03:34
17 Chombolero 04:38
18 Not Hardly 04:18
19 African Song 03:26
19 tracks, 77:52

Exact Audio Copy V0.99 prebeta 5 from 4. May 2009

EAC extraction logfile from 9. January 2011, 19:55

Mongo Santamaria / Skins

Used drive : TSSTcorpCDDVDW SH-S203N Adapter: 0 ID: 2

Read mode : Secure
Utilize accurate stream : Yes
Defeat audio cache : Yes
Make use of C2 pointers : No

Read offset correction : 6
Overread into Lead-In and Lead-Out : No
Fill up missing offset samples with silence : Yes
Delete leading and trailing silent blocks : No
Null samples used in CRC calculations : Yes
Used interface : Installed external ASPI interface
Gap handling : Appended to previous track

Used output format : User Defined Encoder
Selected bitrate : 768 kBit/s
Quality : High
Add ID3 tag : No
Command line compressor : C:\Program Files\Exact Audio Copy\Flac\flac.exe
Additional command line options : -8 -V -T "ARTIST=%a" -T "TITLE=%t" -T "ALBUM=%g" -T "DATE=%y" -T "TRACKNUMBER=%n" -T "TOTALTRACKS=%x" -T "GENRE=%m" -T "ALBUMARTIST=%v" -T "ALBUM ARTIST=%v" -T "COMMENT=EAC V0.99 pb5, Secure Mode, Test & Copy, AccurateRip,


TOC of the extracted CD

Track | Start | Length | Start sector | End sector
––––––––––––––––––––––––––––-
1 | 0:00.00 | 3:33.35 | 0 | 16009
2 | 3:33.35 | 2:31.40 | 16010 | 27374
3 | 6:05.00 | 3:27.67 | 27375 | 42966
4 | 9:32.67 | 5:09.20 | 42967 | 66161
5 | 14:42.12 | 5:26.30 | 66162 | 90641
6 | 20:08.42 | 2:42.60 | 90642 | 102851
7 | 22:51.27 | 6:40.23 | 102852 | 132874
8 | 29:31.50 | 5:09.02 | 132875 | 156051
9 | 34:40.52 | 2:35.18 | 156052 | 167694
10 | 37:15.70 | 2:39.40 | 167695 | 179659
11 | 39:55.35 | 4:17.35 | 179660 | 198969
12 | 44:12.70 | 3:10.35 | 198970 | 213254
13 | 47:23.30 | 3:28.37 | 213255 | 228891
14 | 50:51.67 | 5:46.23 | 228892 | 254864
15 | 56:38.15 | 5:24.27 | 254865 | 279191
16 | 62:02.42 | 3:34.68 | 279192 | 295309
17 | 65:37.35 | 4:38.45 | 295310 | 316204
18 | 70:16.05 | 4:18.65 | 316205 | 335619
19 | 74:34.70 | 3:25.00 | 335620 | 350994


Track 1

Filename J:\New Rips\Mongo Santamaria - Skins (1989) [FLAC] {Milestone MCD-47038-2 rec 1962-64}\01 - Skins.wav

Pre-gap length 0:00:02.00

Peak level 87.5 %
Track quality 100.0 %
Test CRC DA336490
Copy CRC DA336490
Accurately ripped (confidence 7) [BE19AF5F]
Copy OK

Track 2

Filename J:\New Rips\Mongo Santamaria - Skins (1989) [FLAC] {Milestone MCD-47038-2 rec 1962-64}\02 - Fatback.wav

Pre-gap length 0:00:02.64

Peak level 81.2 %
Track quality 100.0 %
Test CRC 4124ABAA
Copy CRC 4124ABAA
Accurately ripped (confidence 6) [D7998048]
Copy OK

Track 3

Filename J:\New Rips\Mongo Santamaria - Skins (1989) [FLAC] {Milestone MCD-47038-2 rec 1962-64}\03 - Hammer Head.wav

Pre-gap length 0:00:02.40

Peak level 100.0 %
Track quality 99.9 %
Test CRC 27B1890D
Copy CRC 27B1890D
Accurately ripped (confidence 7) [7337B7FA]
Copy OK

Track 4

Filename J:\New Rips\Mongo Santamaria - Skins (1989) [FLAC] {Milestone MCD-47038-2 rec 1962-64}\04 - Dot Dot Dot.wav

Pre-gap length 0:00:02.93

Peak level 89.2 %
Track quality 100.0 %
Test CRC F4A28BF4
Copy CRC F4A28BF4
Accurately ripped (confidence 7) [8FCD67C8]
Copy OK

Track 5

Filename J:\New Rips\Mongo Santamaria - Skins (1989) [FLAC] {Milestone MCD-47038-2 rec 1962-64}\05 - Dirty Willie.wav

Pre-gap length 0:00:02.40

Peak level 88.6 %
Track quality 99.9 %
Test CRC 3E671910
Copy CRC 3E671910
Accurately ripped (confidence 7) [00FFBFB7]
Copy OK

Track 6

Filename J:\New Rips\Mongo Santamaria - Skins (1989) [FLAC] {Milestone MCD-47038-2 rec 1962-64}\06 - Sweet Tater Pie.wav

Pre-gap length 0:00:02.13

Peak level 98.8 %
Track quality 100.0 %
Test CRC 0E4BADD2
Copy CRC 0E4BADD2
Accurately ripped (confidence 7) [CBF522E0]
Copy OK

Track 7

Filename J:\New Rips\Mongo Santamaria - Skins (1989) [FLAC] {Milestone MCD-47038-2 rec 1962-64}\07 - Bembe Blue.wav

Pre-gap length 0:00:02.66

Peak level 92.6 %
Track quality 100.0 %
Test CRC AA12F15C
Copy CRC AA12F15C
Accurately ripped (confidence 7) [63EC9B53]
Copy OK

Track 8

Filename J:\New Rips\Mongo Santamaria - Skins (1989) [FLAC] {Milestone MCD-47038-2 rec 1962-64}\08 - Dulce Amore.wav

Pre-gap length 0:00:02.40

Peak level 91.4 %
Track quality 100.0 %
Test CRC 32D62997
Copy CRC 32D62997
Accurately ripped (confidence 7) [CF5FFB5A]
Copy OK

Track 9

Filename J:\New Rips\Mongo Santamaria - Skins (1989) [FLAC] {Milestone MCD-47038-2 rec 1962-64}\09 - Tacos.wav

Pre-gap length 0:00:02.76

Peak level 97.5 %
Track quality 100.0 %
Test CRC 6D161616
Copy CRC 6D161616
Accurately ripped (confidence 7) [0287779F]
Copy OK

Track 10

Filename J:\New Rips\Mongo Santamaria - Skins (1989) [FLAC] {Milestone MCD-47038-2 rec 1962-64}\10 - Corn Bread Guajira.wav

Pre-gap length 0:00:02.84

Peak level 100.0 %
Track quality 100.0 %
Test CRC FEDDBA3F
Copy CRC FEDDBA3F
Accurately ripped (confidence 7) [1519314C]
Copy OK

Track 11

Filename J:\New Rips\Mongo Santamaria - Skins (1989) [FLAC] {Milestone MCD-47038-2 rec 1962-64}\11 - Tumba Le Le.wav

Pre-gap length 0:00:02.44

Peak level 100.0 %
Track quality 100.0 %
Test CRC 6DE46016
Copy CRC 6DE46016
Accurately ripped (confidence 7) [03DA7DC0]
Copy OK

Track 12

Filename J:\New Rips\Mongo Santamaria - Skins (1989) [FLAC] {Milestone MCD-47038-2 rec 1962-64}\12 - Happy Now.wav

Pre-gap length 0:00:02.06

Peak level 98.7 %
Track quality 100.0 %
Test CRC 7773C800
Copy CRC 7773C800
Accurately ripped (confidence 7) [B782496F]
Copy OK

Track 13

Filename J:\New Rips\Mongo Santamaria - Skins (1989) [FLAC] {Milestone MCD-47038-2 rec 1962-64}\13 - Country Song.wav

Pre-gap length 0:00:02.37

Peak level 97.0 %
Track quality 100.0 %
Test CRC D23529FA
Copy CRC D23529FA
Accurately ripped (confidence 7) [888D71FC]
Copy OK

Track 14

Filename J:\New Rips\Mongo Santamaria - Skins (1989) [FLAC] {Milestone MCD-47038-2 rec 1962-64}\14 - Congo Blue.wav

Pre-gap length 0:00:02.42

Peak level 96.1 %
Track quality 100.0 %
Test CRC 5EC0894E
Copy CRC 5EC0894E
Accurately ripped (confidence 7) [388219E0]
Copy OK

Track 15

Filename J:\New Rips\Mongo Santamaria - Skins (1989) [FLAC] {Milestone MCD-47038-2 rec 1962-64}\15 - Carmela.wav

Pre-gap length 0:00:00.77

Peak level 99.9 %
Track quality 100.0 %
Test CRC 97AAB772
Copy CRC 97AAB772
Accurately ripped (confidence 6) [F4F4BD11]
Copy OK

Track 16

Filename J:\New Rips\Mongo Santamaria - Skins (1989) [FLAC] {Milestone MCD-47038-2 rec 1962-64}\16 - Hombre.wav

Pre-gap length 0:00:01.93

Peak level 97.8 %
Track quality 100.0 %
Test CRC 6221BC96
Copy CRC 6221BC96
Accurately ripped (confidence 6) [8F0ECDF3]
Copy OK

Track 17

Filename J:\New Rips\Mongo Santamaria - Skins (1989) [FLAC] {Milestone MCD-47038-2 rec 1962-64}\17 - Chombolero.wav

Pre-gap length 0:00:02.37

Peak level 97.5 %
Track quality 99.9 %
Test CRC 23E8842F
Copy CRC 23E8842F
Accurately ripped (confidence 6) [107234E2]
Copy OK

Track 18

Filename J:\New Rips\Mongo Santamaria - Skins (1989) [FLAC] {Milestone MCD-47038-2 rec 1962-64}\18 - Not Hardly.wav

Pre-gap length 0:00:02.50

Peak level 99.9 %
Track quality 100.0 %
Test CRC 2425079C
Copy CRC 2425079C
Accurately ripped (confidence 7) [9360A29B]
Copy OK

Track 19

Filename J:\New Rips\Mongo Santamaria - Skins (1989) [FLAC] {Milestone MCD-47038-2 rec 1962-64}\19 - African Song.wav

Pre-gap length 0:00:02.20

Peak level 96.9 %
Track quality 100.0 %
Test CRC 17301046
Copy CRC 17301046
Accurately ripped (confidence 7) [CD5463E9]
Copy OK


All tracks accurately ripped

No errors occurred

End of status report


Mongo Santamaria - Skins (1962-64) {Milestone MCD-47038-2 rel 1989}

Mongo Santamaria - Skins (1962-64) {Milestone MCD-47038-2 rel 1989}


All thanks goes to the original releaser!