Subcategories

The Monkees - Greatest Hits (1995)

Posted By: L@ter
The Monkees - Greatest  Hits (1995)

The Monkees - Greatest Hits (1995)
EAC Rip | FLAC, IMG+CUE, LOG | 361 MB | 59,12 min | Covers
Label: Rhino Records (1995) | Pop-Rock, Oldies | Compilation | RAR 3% Rec.

The Monkees were a pop rock group. Assembled in Los Angeles in 1966 by Robert "Bob" Rafelson and Bert Schneider for the American television series The Monkees, which aired from 1966 to 1968, the musical acting quartet was composed of Americans Micky Dolenz, Michael Nesmith and Peter Tork, and Englishman Davy Jones. All music was supervised by producer Don Kirshner. At the time of the group's formation, its producers saw The Monkees as a Beatles-like band. At the start, the band members provided vocals, and were given some performing and production opportunities, but they eventually fought for and earned the right to collectively supervise all musical output under the band's name. The group undertook several concert tours, allowing an opportunity to perform as a live band as well as on the TV series. Wikipedia

Personnel

- The Monkees
- Davey Jones (vocals, tambourine, chimes, background vocals)
- Mike Nesmith (vocals, electric guitar, 12-string guitar)
- Gerry McGee, Louie Shelton (guitar, acoustic guitar)
- Peter Tork (electric guitar, piano, harpsichord, organ, background vocals)
- Micky Dolenz (vocals, drums, timpani, wood block, background vocals)


Tracklist

01. (Theme From) The Monkees
02. Last Train To Clarksville
03. I Wanna Be Free
04. I'm A Believer
05. (I'm Not Your) Steppin' Stone
06. Mary, Mary
07. A Little Bit Me, A Little Bit You
08. The Girl I Knew Somewhere
09. Randy Scouse Git
10. Pleasant Valley Sunday
11. Words
12. Daydream Believer
13. Goin' Down
14. Valleri
15. D.W. Washburn
16. It's Nice To Be With You
17. Porpoise Song
18. Listen to the Band
19. That Was Then, This Is Now
20. Heart and Soul


Exact Audio Copy V0.99 prebeta 5 from 4. May 2009

EAC extraction logfile from 1. December 2010, 10:37

The Monkees / Greatest Hits

Used drive : HL-DT-STDVD-RAM GH22NP20 Adapter: 1 ID: 0

Read mode : Secure
Utilize accurate stream : Yes
Defeat audio cache : Yes
Make use of C2 pointers : No

Read offset correction : 102
Overread into Lead-In and Lead-Out : No
Fill up missing offset samples with silence : Yes
Delete leading and trailing silent blocks : No
Null samples used in CRC calculations : Yes
Used interface : Native Win32 interface for Win NT & 2000

Used output format : User Defined Encoder
Selected bitrate : 768 kBit/s
Quality : High
Add ID3 tag : No
Command line compressor : C:\Program Files\Exact Audio Copy\FLAC\FLAC.EXE
Additional command line options : -6 -V -T "ARTIST=%a" -T "TITLE=%t" -T "ALBUM=%g" -T "DATE=%y" -T "TRACKNUMBER=%n" -T "GENRE=%m" -T "COMMENT=%e" %s -o %d


TOC of the extracted CD

Track | Start | Length | Start sector | End sector
––––––––––––––––––––––––––––-
1 | 0:00.00 | 2:19.42 | 0 | 10466
2 | 2:19.42 | 2:46.66 | 10467 | 22982
3 | 5:06.33 | 2:26.47 | 22983 | 33979
4 | 7:33.05 | 2:46.60 | 33980 | 46489
5 | 10:19.65 | 2:22.13 | 46490 | 57152
6 | 12:42.03 | 2:17.57 | 57153 | 67484
7 | 14:59.60 | 2:51.33 | 67485 | 80342
8 | 17:51.18 | 2:33.64 | 80343 | 91881
9 | 20:25.07 | 2:36.49 | 91882 | 103630
10 | 23:01.56 | 3:10.50 | 103631 | 117930
11 | 26:12.31 | 2:51.40 | 117931 | 130795
12 | 29:03.71 | 3:01.05 | 130796 | 144375
13 | 32:05.01 | 4:24.55 | 144376 | 164230
14 | 36:29.56 | 2:21.45 | 164231 | 174850
15 | 38:51.26 | 2:50.61 | 174851 | 187661
16 | 41:42.12 | 2:54.37 | 187662 | 200748
17 | 44:36.49 | 4:12.23 | 200749 | 219671
18 | 48:48.72 | 2:33.55 | 219672 | 231201
19 | 51:22.52 | 4:04.33 | 231202 | 249534
20 | 55:27.10 | 3:45.30 | 249535 | 266439


Range status and errors

Selected range

Filename C:\The Monkees - Greatest Hits.wav

Peak level 100.0 %
Range quality 100.0 %
Copy CRC 802B4B0D
Copy OK

No errors occurred

End of status report


REM GENRE "Pop-Rock / Oldies"
REM DATE 1995
REM DISCID 090DE014
REM COMMENT "ExactAudioCopy v0.99pb5"
PERFORMER "The Monkees"
TITLE "Greatest Hits"
FILE "The Monkees - Greatest Hits.flac" WAVE
TRACK 01 AUDIO
TITLE "(Theme From) The Monkees"
PERFORMER "The Monkees"
INDEX 01 00:00:00
TRACK 02 AUDIO
TITLE "Last Train To Clarksville"
PERFORMER "The Monkees"
INDEX 01 02:19:42
TRACK 03 AUDIO
TITLE "I Wanna Be Free"
PERFORMER "The Monkees"
INDEX 01 05:06:33
TRACK 04 AUDIO
TITLE "I'm A Believer"
PERFORMER "The Monkees"
INDEX 01 07:33:05
TRACK 05 AUDIO
TITLE "(I'm Not Your) Steppin' Stone (Single Version)"
PERFORMER "The Monkees"
INDEX 01 10:19:65
TRACK 06 AUDIO
TITLE "Mary, Mary"
PERFORMER "The Monkees"
INDEX 01 12:42:03
TRACK 07 AUDIO
TITLE "A Little Bit Me, A Little Bit You"
PERFORMER "The Monkees"
INDEX 01 14:59:60
TRACK 08 AUDIO
TITLE "The Girl I Knew Somewhere"
PERFORMER "The Monkees"
INDEX 01 17:51:18
TRACK 09 AUDIO
TITLE "Randy Scouse Git"
PERFORMER "The Monkees"
INDEX 01 20:25:07
TRACK 10 AUDIO
TITLE "Pleasant Valley Sunday (Single Version)"
PERFORMER "The Monkees"
INDEX 01 23:01:56
TRACK 11 AUDIO
TITLE "Words (Single Version)"
PERFORMER "The Monkees"
INDEX 01 26:12:31
TRACK 12 AUDIO
TITLE "Daydream Believer"
PERFORMER "The Monkees"
INDEX 01 29:03:71
TRACK 13 AUDIO
TITLE "Goin' Down"
PERFORMER "The Monkees"
INDEX 01 32:05:01
TRACK 14 AUDIO
TITLE "Valleri"
PERFORMER "The Monkees"
INDEX 01 36:29:56
TRACK 15 AUDIO
TITLE "D. W. Washburn"
PERFORMER "The Monkees"
INDEX 01 38:51:26
TRACK 16 AUDIO
TITLE "It's Nice to Be With You"
PERFORMER "The Monkees"
INDEX 01 41:42:12
TRACK 17 AUDIO
TITLE "Porpoise Song (Theme From 'Head') (Single Version)"
PERFORMER "The Monkees"
INDEX 01 44:36:49
TRACK 18 AUDIO
TITLE "Listen To The Band (Single Version)"
PERFORMER "The Monkees"
INDEX 01 48:48:72
TRACK 19 AUDIO
TITLE "That Was Then, This Is Now (Micky Dolenz And Peter Tork)"
PERFORMER "The Monkees"
INDEX 01 51:22:52
TRACK 20 AUDIO
TITLE "Heart and Soul"
PERFORMER "The Monkees"
INDEX 01 55:27:10