Subcategories

mr. Gnome - Heave Yer Skeleton (2009)

Posted By: TestTickles
mr. Gnome - Heave Yer Skeleton (2009)

mr. Gnome - Heave Yer Skeleton (2009)
EAC Rip | FLAC with CUE and log | scans | 272 mb
MP3 CBR 320kbps | RAR | 101 mb
Genre: indie rock, alternative

Heave Yer Skeleton is the 2009 album by Nicole Barille and Sam Meister, a duo known as mr. Gnome. This is their second album released on their own El Marko label.

mr. Gnome - Heave Yer Skeleton (2009)

1. Spain (4:52)
2. Hills, Valleys, And Valium (0:38)
3. Slow Side (4:35)
4. Plastic Shadow (4:06)
5. Sit Up & Hum (6:03)
6. Titor (1:39)
7. Vampires (3:08)
8. Cleveland Polka (2:58)
9. Pixie Dust (3:33)
10. Today Brings A Bomb (3:57)
11. Searider Falcon (2:33)
12. Heave Yer Skeleton (3:55)

Nicole Barille-vocals, guitar, cigfiddle
Sam Meister-drums, backing vocals, piano

Barb Meister, Jonah Meister, Mark Meister, Tony Barille, Virginia Barille-backing vocals (tracks 8 & 9)
Jonah Meister-guitar (track 11)
Zack Kelly-guitar (track 12)

mr. Gnome - Heave Yer Skeleton (2009)


Exact Audio Copy V1.1 from 23. June 2015

EAC extraction logfile from 23. June 2016, 21:57

mr. Gnome / Heave Yer Skeleton

Used drive : TEAC DVD-ROM DV-28SW Adapter: 1 ID: 0

Read mode : Secure
Utilize accurate stream : Yes
Defeat audio cache : Yes
Make use of C2 pointers : No

Read offset correction : 6
Overread into Lead-In and Lead-Out : No
Fill up missing offset samples with silence : Yes
Delete leading and trailing silent blocks : No
Null samples used in CRC calculations : Yes
Used interface : Native Win32 interface for Win NT & 2000
Gap handling : Left out

Used output format : Internal WAV Routines
Sample format : 44.100 Hz; 16 Bit; Stereo


TOC of the extracted CD

Track | Start | Length | Start sector | End sector
––––––––––––––––––––––––––––-
1 | 0:00.00 | 4:52.35 | 0 | 21934
2 | 4:52.35 | 0:38.48 | 21935 | 24832
3 | 5:31.08 | 4:35.06 | 24833 | 45463
4 | 10:06.14 | 4:06.07 | 45464 | 63920
5 | 14:12.21 | 6:03.02 | 63921 | 91147
6 | 20:15.23 | 1:39.51 | 91148 | 98623
7 | 21:54.74 | 3:08.19 | 98624 | 112742
8 | 25:03.18 | 2:58.72 | 112743 | 126164
9 | 28:02.15 | 3:33.05 | 126165 | 142144
10 | 31:35.20 | 3:57.54 | 142145 | 159973
11 | 35:32.74 | 2:33.74 | 159974 | 171522
12 | 38:06.73 | 3:55.09 | 171523 | 189156


Track 1

Filename C:\My Documents\My FLAC\mr. Gnome - Heave Yer Skeleton (2009) [FLAC]\01 - Spain.wav

Pre-gap length 0:00:02.00

Peak level 99.7 %
Extraction speed 2.5 X
Track quality 99.9 %
Test CRC 0BB39814
Copy CRC 0BB39814
Accurately ripped (confidence 4) [0AE00BE8] (AR v2)
Copy OK

Track 2

Filename C:\My Documents\My FLAC\mr. Gnome - Heave Yer Skeleton (2009) [FLAC]\02 - Hills, Valleys, And Valium.wav

Peak level 99.7 %
Extraction speed 1.3 X
Track quality 100.0 %
Test CRC 74A9AC35
Copy CRC 74A9AC35
Accurately ripped (confidence 4) [EC4537DF] (AR v2)
Copy OK

Track 3

Filename C:\My Documents\My FLAC\mr. Gnome - Heave Yer Skeleton (2009) [FLAC]\03 - Slow Side.wav

Peak level 99.8 %
Extraction speed 3.2 X
Track quality 100.0 %
Test CRC 1BAE8A4F
Copy CRC 1BAE8A4F
Accurately ripped (confidence 4) [F99116D1] (AR v2)
Copy OK

Track 4

Filename C:\My Documents\My FLAC\mr. Gnome - Heave Yer Skeleton (2009) [FLAC]\04 - Plastic Shadow.wav

Peak level 99.8 %
Extraction speed 3.3 X
Track quality 100.0 %
Test CRC 53E7C8A1
Copy CRC 53E7C8A1
Accurately ripped (confidence 4) [DA4ABA42] (AR v2)
Copy OK

Track 5

Filename C:\My Documents\My FLAC\mr. Gnome - Heave Yer Skeleton (2009) [FLAC]\05 - Sit Up & Hum.wav

Peak level 99.8 %
Extraction speed 3.8 X
Track quality 100.0 %
Test CRC 9F964B06
Copy CRC 9F964B06
Accurately ripped (confidence 4) [8FAF347A] (AR v2)
Copy OK

Track 6

Filename C:\My Documents\My FLAC\mr. Gnome - Heave Yer Skeleton (2009) [FLAC]\06 - Titor.wav

Peak level 99.7 %
Extraction speed 3.2 X
Track quality 100.0 %
Test CRC 790F82F9
Copy CRC 790F82F9
Accurately ripped (confidence 4) [FC245884] (AR v2)
Copy OK

Track 7

Filename C:\My Documents\My FLAC\mr. Gnome - Heave Yer Skeleton (2009) [FLAC]\07 - Vampires.wav

Peak level 99.8 %
Extraction speed 2.7 X
Track quality 99.9 %
Test CRC F6D8F906
Copy CRC F6D8F906
Accurately ripped (confidence 4) [3963362D] (AR v2)
Copy OK

Track 8

Filename C:\My Documents\My FLAC\mr. Gnome - Heave Yer Skeleton (2009) [FLAC]\08 - Cleveland Polka.wav

Peak level 99.8 %
Extraction speed 3.2 X
Track quality 99.9 %
Test CRC 01FEC645
Copy CRC 01FEC645
Accurately ripped (confidence 4) [4C319458] (AR v2)
Copy OK

Track 9

Filename C:\My Documents\My FLAC\mr. Gnome - Heave Yer Skeleton (2009) [FLAC]\09 - Pixie Dust.wav

Peak level 99.8 %
Extraction speed 4.1 X
Track quality 100.0 %
Test CRC 9E3BA84F
Copy CRC 9E3BA84F
Accurately ripped (confidence 4) [D67E3B4B] (AR v2)
Copy OK

Track 10

Filename C:\My Documents\My FLAC\mr. Gnome - Heave Yer Skeleton (2009) [FLAC]\10 - Today Brings A Bomb.wav

Peak level 99.7 %
Extraction speed 3.6 X
Track quality 99.9 %
Test CRC D5956EAB
Copy CRC D5956EAB
Accurately ripped (confidence 4) [8D95F9E8] (AR v2)
Copy OK

Track 11

Filename C:\My Documents\My FLAC\mr. Gnome - Heave Yer Skeleton (2009) [FLAC]\11 - Searider Falcon.wav

Peak level 99.8 %
Extraction speed 4.3 X
Track quality 100.0 %
Test CRC CF93DFE9
Copy CRC CF93DFE9
Accurately ripped (confidence 4) [B384266B] (AR v2)
Copy OK

Track 12

Filename C:\My Documents\My FLAC\mr. Gnome - Heave Yer Skeleton (2009) [FLAC]\12 - Heave Yer Skeleton.wav

Peak level 88.2 %
Extraction speed 4.3 X
Track quality 100.0 %
Test CRC 8DF6F549
Copy CRC 8DF6F549
Accurately ripped (confidence 4) [6DF2ACF3] (AR v2)
Copy OK


All tracks accurately ripped

No errors occurred

End of status report

–– CUETools DB Plugin V2.1.6

[CTDB TOCID: eMNCaa.7DTkYxU3CgFlWheZPds4-] found
Submit result: eMNCaa.7DTkYxU3CgFlWheZPds4- has been confirmed
Track | CTDB Status
1 | (5/5) Accurately ripped
2 | (5/5) Accurately ripped
3 | (5/5) Accurately ripped
4 | (5/5) Accurately ripped
5 | (5/5) Accurately ripped
6 | (5/5) Accurately ripped
7 | (5/5) Accurately ripped
8 | (5/5) Accurately ripped
9 | (5/5) Accurately ripped
10 | (5/5) Accurately ripped
11 | (5/5) Accurately ripped
12 | (5/5) Accurately ripped


==== Log checksum 739B7B21DC03CF8A9CEADB9FD6066B239F9BB5DF2858727750E8F8ED89BC9CCD ====


mr. Gnome - Heave Yer Skeleton (2009)
NITROFLARE (FLAC)
NITROFLARE (MP3)