Subcategories

Viktoria Mullova - The Peasant Girl (2011)

Posted By: luckburz
Viktoria Mullova - The Peasant Girl (2011)

Viktoria Mullova - The Peasant Girl
EAC+LOG+CUE | FLAC: 405 MB | Full Artwork | 5% Recovery Info
Label/Cat#: Onyx # ONYX 4070 | Country/Year: Europe 2011
Genre: Classical, Crossover | Style: Classical/Jazz/Folk

MD5 [X] CUE [X] LOG [X] INFO TEXT [X] ARTWORK [X]

selfrip [X] not my rip []

Viktoria Mullova - The Peasant Girl (2011)


Exact Audio Copy V1.0 beta 3 from 29. August 2011

EAC extraction logfile from 1. October 2012, 21:10

Viktoria Mullova / The Peasant Girl (Disc 1)

Used drive : PIONEER BD-RW BDR-206 Adapter: 0 ID: 2

Read mode : Secure
Utilize accurate stream : Yes
Defeat audio cache : Yes
Make use of C2 pointers : No

Read offset correction : 667
Overread into Lead-In and Lead-Out : No
Fill up missing offset samples with silence : Yes
Delete leading and trailing silent blocks : No
Null samples used in CRC calculations : Yes
Used interface : Native Win32 interface for Win NT & 2000

Used output format : User Defined Encoder
Selected bitrate : 1024 kBit/s
Quality : High
Add ID3 tag : Yes
Command line compressor : C:\Program Files\FLAC\flac.exe
Additional command line options : -5 -T "Artist=%artist%" -T "Title=%title%" -T "Album=%albumtitle%" -T "Date=%year%" -T "Tracknumber=%tracknr%" -T "Genre=%genre%" %source% -o %dest%


TOC of the extracted CD

Track | Start | Length | Start sector | End sector
––––––––––––––––––––––––––––-
1 | 0:00.00 | 5:36.43 | 0 | 25242
2 | 5:36.43 | 6:44.48 | 25243 | 55590
3 | 12:21.16 | 6:53.45 | 55591 | 86610
4 | 19:14.61 | 8:20.47 | 86611 | 124157
5 | 27:35.33 | 9:35.51 | 124158 | 167333
6 | 37:11.09 | 10:51.28 | 167334 | 216186
7 | 48:02.37 | 4:44.04 | 216187 | 237490


Range status and errors

Selected range

Filename F:\=== VINYL RIPS ===\=== EAC===\X FRESH RIP\Viktoria Mullova - The Peasant Girl (Disc 1).wav

Peak level 98.0 %
Extraction speed 7.1 X
Range quality 100.0 %
Test CRC BC95B42D
Copy CRC BC95B42D
Copy OK

No errors occurred


AccurateRip summary

Track 1 not present in database
Track 2 not present in database
Track 3 not present in database
Track 4 not present in database
Track 5 not present in database
Track 6 not present in database
Track 7 not present in database

None of the tracks are present in the AccurateRip database

End of status report

–– CUETools DB Plugin V2.1.3

[CTDB TOCID: DL1vMQuKHd63JN2ZcnKqqhqla1U-] found, Submit result: DL1vMQuKHd63JN2ZcnKqqhqla1U- has been confirmed
[5d0e7e2b] (2/2) Accurately ripped


==== Log checksum 9E40E1B40C7318F5FD9B8108C88CC8E08ADFBF1A0E5BB7DF548A603E02153BCB ====

Exact Audio Copy V1.0 beta 3 from 29. August 2011

EAC extraction logfile from 1. October 2012, 21:23

Viktoria Mullova / The Peasant Girl (Disk 2)

Used drive : PIONEER BD-RW BDR-206 Adapter: 0 ID: 2

Read mode : Secure
Utilize accurate stream : Yes
Defeat audio cache : Yes
Make use of C2 pointers : No

Read offset correction : 667
Overread into Lead-In and Lead-Out : No
Fill up missing offset samples with silence : Yes
Delete leading and trailing silent blocks : No
Null samples used in CRC calculations : Yes
Used interface : Native Win32 interface for Win NT & 2000

Used output format : User Defined Encoder
Selected bitrate : 1024 kBit/s
Quality : High
Add ID3 tag : Yes
Command line compressor : C:\Program Files\FLAC\flac.exe
Additional command line options : -5 -T "Artist=%artist%" -T "Title=%title%" -T "Album=%albumtitle%" -T "Date=%year%" -T "Tracknumber=%tracknr%" -T "Genre=%genre%" %source% -o %dest%


TOC of the extracted CD

Track | Start | Length | Start sector | End sector
––––––––––––––––––––––––––––-
1 | 0:00.00 | 3:06.42 | 0 | 13991
2 | 3:06.42 | 5:58.60 | 13992 | 40901
3 | 9:05.27 | 4:42.23 | 40902 | 62074
4 | 13:47.50 | 7:39.21 | 62075 | 96520
5 | 21:26.71 | 8:11.18 | 96521 | 133363
6 | 29:38.14 | 8:06.71 | 133364 | 169884


Range status and errors

Selected range

Filename F:\=== VINYL RIPS ===\=== EAC===\X FRESH RIP\Viktoria Mullova - The Peasant Girl (Disk 2).wav

Peak level 97.9 %
Extraction speed 6.6 X
Range quality 100.0 %
Test CRC F3E546C0
Copy CRC F3E546C0
Copy OK

No errors occurred


AccurateRip summary

Track 1 not present in database
Track 2 not present in database
Track 3 not present in database
Track 4 not present in database
Track 5 not present in database
Track 6 not present in database

None of the tracks are present in the AccurateRip database

End of status report

–– CUETools DB Plugin V2.1.3

[CTDB TOCID: XeUSGNInfNHyKPksHghe7FJ5kCw-] found, Submit result: XeUSGNInfNHyKPksHghe7FJ5kCw- has been confirmed
[ca5902b4] (1/1) Accurately ripped


==== Log checksum 0C49E0F4D6042E834D69885F855F4E13292E3F0EAFD4CC72B6FEFA45293B9B1A ====

foobar2000 1.1.14a / Dynamic Range Meter 1.1.1
log date: 2012-11-06 22:23:40

––––––––––––––––––––––––––––––––––––––––
Analyzed: Viktoria Mullova / The Peasant Girl (Disc 1)
––––––––––––––––––––––––––––––––––––––––

DR Peak RMS Duration Track
––––––––––––––––––––––––––––––––––––––––
DR13 -0.17 dB -17.32 dB 5:37 01-For Nedim (For Nadia)
DR14 -2.66 dB -24.05 dB 6:45 02-Django
DR16 -0.18 dB -20.89 dB 6:54 03-Dark Eyes
DR17 -1.48 dB -23.18 dB 8:21 04-Er Nemo Klantz with Bartok Duos
DR15 -3.84 dB -24.39 dB 9:36 05-The Peasant
DR15 -0.18 dB -25.46 dB 10:51 06-7 Duos with improvisations
DR13 -7.53 dB -26.44 dB 4:44 07-Yura
––––––––––––––––––––––––––––––––––––––––

Number of tracks: 7
Official DR value: DR15

Samplerate: 44100 Hz
Channels: 2
Bits per sample: 16
Bitrate: 638 kbps
Codec: FLAC
================================================================================

––––––––––––––––––––––––––––––––––––––––
Analyzed: Viktoria Mullova / The Peasant Girl (Disk 2)
––––––––––––––––––––––––––––––––––––––––

DR Peak RMS Duration Track
––––––––––––––––––––––––––––––––––––––––
DR17 -0.18 dB -19.56 dB 3:07 01-Bratsch - Bi Lovengo
DR14 -1.24 dB -18.71 dB 5:59 02-Weather Report - The pursuit of the woman with the feathered hat
DR17 -0.97 dB -23.79 dB 4:42 03-N;Dour - Life
DR13 -2.01 dB -23.01 dB 7:39 04-Kodaly - Duo for Violin and Cello Op 7 I
DR14 -4.66 dB -26.13 dB 8:11 05-Kodaly - Duo for Violin and Cello Op 7 II
DR16 -2.27 dB -24.44 dB 8:07 06-Kodaly - Duo for Violin and Cello Op 7 III
––––––––––––––––––––––––––––––––––––––––

Number of tracks: 6
Official DR value: DR15

Samplerate: 44100 Hz
Channels: 2
Bits per sample: 16
Bitrate: 619 kbps
Codec: FLAC
================================================================================



CD Info:

Viktoria Mullova - The Peasant Girl

Label: Onyx
Catalog#: ONYX 4070
Format: 2x CD, Album
Country: UK & Europe
Released: 2011
Genre: Classical Crossover
Style: Classical/Jazz/Folk

Tracklist:

CD 1:

1 - For Nedim (For Nadia) 5:37
2 - Django 6:45
3 - Dark Eyes 6:54
4 - Er Nemo Klantz with Bartok Duos 8:21
5 - The Peasant 9:36
6 - 7 Duos with improvisations 10:51
7 - Yura 4:44

CD 2:

1 - Bratsch - Bi Lovengo 3:07
2 - Weather Report - The pursuit of the woman with the feathered hat 5:59
3 - N;Dour - Life 4:42
4 - Kodaly - Duo for Violin and Cello Op 7 I 7:39
5 - Kodaly - Duo for Violin and Cello Op 7 II 8:11
6 - Kodaly - Duo for Violin and Cello Op 7 III 8:07

“The programme, which initially looked bitty, adds up to a coherent sequence…All of the performance have energy and imagination, and even though Kodaly's Duo, passionately played by Mullova and Barley, might seem at a tangent to the rest, it makes perfect sense as the culmination of a beautifully recorded album.” BBC Music Magazine

“sit back and enjoy the brilliant, imaginative playing, with its interesting dialogue between the performance styles of jazz and classical music…[Mullova] certainly sounds spontaneous but retains a disciplined polish from her classical training…all in all this is a very stimulating programme, performed with flair and finesse.” Grammophone
Viktoria Mullova - The Peasant Girl (2011)

// classical music \\
// all of my uploads \\
________________

Download:

Filepost FLAC
Filepost Artwork
________________