Subcategories

Muslimgauze - Mohammad Ali Jinnah (2016)

Posted By: delpotro
Muslimgauze - Mohammad Ali Jinnah (2016)

Muslimgauze - Mohammad Ali Jinnah (2016)
EAC Rip | FLAC (tracks+log+.cue) | 01:04:46 | 410 Mb
Electronic, Experimental, Dub, Tribal, Ethnic | Label: Staalplaat

Unsurprisingly for an artist as prolific and strident as Bryn Jones was, the flood of material he sent to labels and compatriots was not always carefully categorized. Also, sometimes he would be so eager to release material that if things didn’t happen fast enough he’d just send in another tape. And that circumstance is how you wind up with a fascinating oddity like Mohammad Ali Jinnah.

Staalplaat has previously released, in 2002, the Muslimgauze album Sarin Israel Nes Ziona. While continuing to sort through and release the material Jones left behind with his death in 1999, the Mohammad Ali Jinnah tape was found to have significant overlap with that now out of print album, but only to a certain extent. 6 of the 15 tracks on Mohammad Ali Jinnah match up with material from the earlier tape (which included 20 tracks), but when Jones resubmitted this tape he also included extended mixes of 4 of the tracks from the original album (“Imam Fainted”, “Yousif Water Pipe Habit”, “Opulent Maghrebi Meze”, and “Indo Muslem Atlas”) as well as five entirely new compositions. The result is a fascinating re-setting of some of the music from that underheard release.

Whether Jones preferred one arrangement to the other is sadly lost to us, but listeners now can appreciate a wholly new experience with the material herein, even if some of the material itself is previously released. And the new tracks are fascinating, even by Jones’ usual standards, whether they’re the grinding, obsessively focused percussion workouts “For Larger Iran” and “Burnt Pages of Ali Jinnah Koran” or the cryptically distant likes of “Cold Turkey”. Paired with classic tracks like the bass-distorted, Middle Eastern boom bap of “Kurds Eye View” and the furtively head-nodding “Zahir Din, Cabdriver of Zind” the result is a release unlike anything else in Jones’ discography.
Tracklist:
1. Kurds Eye View
2. Imam Fainted
3. Burnt Pages Of Ali Jinnah Koran
4. Rafia In Her Voluminous Black Tent
5. Yousif Water Pipe Habit
6. Opulent Maghrebi Meze
7. Cold Turkey
8. Because He Had A Mustache And Beard, They Thought He Was An Arab
9. Abu Kaff, Your Guide Around A West Bank Bedouin Shack
10. Abdullah Kosher Halal
11. Bleu Box Of Zaffarool Goudarzi
12. Zahir Din, Cabdriver Of Zind
13. Indo Muslem Atlas
14. For Larger Iran
15. Hazarajat

Exact Audio Copy V1.3 from 2. September 2016



EAC extraction logfile from 16. December 2016, 15:28



Muslimgauze / Mohammad Ali Jinnah



Used drive : HL-DT-STBD-RE UH10LS20 Adapter: 1 ID: 0



Read mode : Secure

Utilize accurate stream : Yes

Defeat audio cache : Yes

Make use of C2 pointers : No



Read offset correction : 667

Overread into Lead-In and Lead-Out : No

Fill up missing offset samples with silence : Yes

Delete leading and trailing silent blocks : No

Null samples used in CRC calculations : Yes

Used interface : Native Win32 interface for Win NT & 2000

Gap handling : Appended to previous track



Used output format : User Defined Encoder

Selected bitrate : 1024 kBit/s

Quality : High

Add ID3 tag : No

Command line compressor : C:\Program Files (x86)\Exact Audio Copy\FLAC\FLAC.EXE

Additional command line options : -8 -e -V -T "ARTIST=%artist%" -T "TITLE=%title%" -T "ALBUM=%albumtitle%" -T "DATE=%year%" -T "TRACKNUMBER=%tracknr%" -T "GENRE=%genre%" -T "PERFORMER=%albuminterpret%" -T "COMPOSER=%composer%" %haslyrics%–tag-from-file=LYRICS="%lyricsfile%"%haslyrics% -T "ALBUMARTIST=%albumartist%" -T "DISCNUMBER=%cdnumber%" -T "TOTALDISCS=%totalcds%" -T "TOTALTRACKS=%numtracks%" -T "COMMENT=%comment%" %source% -o %dest%





TOC of the extracted CD



Track | Start | Length | Start sector | End sector

––––––––––––––––––––––––––––-

1 | 0:00.00 | 5:23.68 | 0 | 24292

2 | 5:23.68 | 4:11.34 | 24293 | 43151

3 | 9:35.27 | 7:36.56 | 43152 | 77407

4 | 17:12.08 | 7:31.16 | 77408 | 111248

5 | 24:43.24 | 5:05.11 | 111249 | 134134

6 | 29:48.35 | 5:45.66 | 134135 | 160075

7 | 35:34.26 | 3:39.71 | 160076 | 176571

8 | 39:14.22 | 3:42.61 | 176572 | 193282

9 | 42:57.08 | 3:22.66 | 193283 | 208498

10 | 46:19.74 | 2:17.43 | 208499 | 218816

11 | 48:37.42 | 2:18.06 | 218817 | 229172

12 | 50:55.48 | 2:30.64 | 229173 | 240486

13 | 53:26.37 | 1:53.51 | 240487 | 249012

14 | 55:20.13 | 7:24.23 | 249013 | 282335

15 | 62:44.36 | 2:01.49 | 282336 | 291459





Track 1



Filename C:\Users\Doug\Desktop\Muslimgauze - Mohammad Ali Jinnah\01 - Kurds Eye View.wav



Pre-gap length 0:00:02.00



Peak level 98.8 %

Extraction speed 1.1 X

Track quality 100.0 %

Test CRC CA1FFDAB

Copy CRC CA1FFDAB

Track not present in AccurateRip database

Copy OK



Track 2



Filename C:\Users\Doug\Desktop\Muslimgauze - Mohammad Ali Jinnah\02 - Imam Fainted.wav



Peak level 98.8 %

Extraction speed 1.2 X

Track quality 100.0 %

Test CRC 3A12B1BB

Copy CRC 3A12B1BB

Track not present in AccurateRip database

Copy OK



Track 3



Filename C:\Users\Doug\Desktop\Muslimgauze - Mohammad Ali Jinnah\03 - Burnt Pages of Ali Jinnah Koran.wav



Peak level 98.8 %

Extraction speed 1.5 X

Track quality 100.0 %

Test CRC 8492DDE8

Copy CRC 8492DDE8

Track not present in AccurateRip database

Copy OK



Track 4



Filename C:\Users\Doug\Desktop\Muslimgauze - Mohammad Ali Jinnah\04 - Rafia in Her Voluminous Black Tent.wav



Peak level 98.8 %

Extraction speed 1.5 X

Track quality 99.9 %

Test CRC 01B3E0FB

Copy CRC 01B3E0FB

Track not present in AccurateRip database

Copy OK



Track 5



Filename C:\Users\Doug\Desktop\Muslimgauze - Mohammad Ali Jinnah\05 - Yousif Water Pipe Habit.wav



Peak level 98.8 %

Extraction speed 1.7 X

Track quality 100.0 %

Test CRC 6E6A6E36

Copy CRC 6E6A6E36

Track not present in AccurateRip database

Copy OK



Track 6



Filename C:\Users\Doug\Desktop\Muslimgauze - Mohammad Ali Jinnah\06 - Opulent Maghrebi Meze.wav



Peak level 98.8 %

Extraction speed 1.8 X

Track quality 100.0 %

Test CRC 0511E217

Copy CRC 0511E217

Track not present in AccurateRip database

Copy OK



Track 7



Filename C:\Users\Doug\Desktop\Muslimgauze - Mohammad Ali Jinnah\07 - Cold Turkey.wav



Peak level 98.8 %

Extraction speed 1.8 X

Track quality 100.0 %

Test CRC C1688A9F

Copy CRC C1688A9F

Track not present in AccurateRip database

Copy OK



Track 8



Filename C:\Users\Doug\Desktop\Muslimgauze - Mohammad Ali Jinnah\08 - Because He Had a Mustache and Beard, They Thought He Was an Arab.wav



Peak level 98.8 %

Extraction speed 1.9 X

Track quality 100.0 %

Test CRC 08CA0DF2

Copy CRC 08CA0DF2

Track not present in AccurateRip database

Copy OK



Track 9



Filename C:\Users\Doug\Desktop\Muslimgauze - Mohammad Ali Jinnah\09 - Abu Kaff, Your Guide Around a West Bank Bedouin Shack.wav



Peak level 98.8 %

Extraction speed 1.9 X

Track quality 100.0 %

Test CRC DDC5C5D4

Copy CRC DDC5C5D4

Track not present in AccurateRip database

Copy OK



Track 10



Filename C:\Users\Doug\Desktop\Muslimgauze - Mohammad Ali Jinnah\10 - Abdullah Kosher Halal.wav



Peak level 98.8 %

Extraction speed 1.8 X

Track quality 100.0 %

Test CRC 71A80E23

Copy CRC 71A80E23

Track not present in AccurateRip database

Copy OK



Track 11



Filename C:\Users\Doug\Desktop\Muslimgauze - Mohammad Ali Jinnah\11 - Bleu Box of Zaffarool Goudarzi.wav



Peak level 98.8 %

Extraction speed 1.5 X

Track quality 99.9 %

Test CRC 1F972E94

Copy CRC 1F972E94

Track not present in AccurateRip database

Copy OK



Track 12



Filename C:\Users\Doug\Desktop\Muslimgauze - Mohammad Ali Jinnah\12 - Zahar Din, Cabdriver of Zind.wav



Peak level 98.8 %

Extraction speed 1.9 X

Track quality 100.0 %

Test CRC AB87F934

Copy CRC AB87F934

Track not present in AccurateRip database

Copy OK



Track 13



Filename C:\Users\Doug\Desktop\Muslimgauze - Mohammad Ali Jinnah\13 - Indo Muslem Atlas.wav



Peak level 98.8 %

Extraction speed 1.8 X

Track quality 100.0 %

Test CRC BCB4DB72

Copy CRC BCB4DB72

Track not present in AccurateRip database

Copy OK



Track 14



Filename C:\Users\Doug\Desktop\Muslimgauze - Mohammad Ali Jinnah\14 - For Larger Iran.wav



Peak level 98.8 %

Extraction speed 2.4 X

Track quality 100.0 %

Test CRC 093DF831

Copy CRC 093DF831

Track not present in AccurateRip database

Copy OK



Track 15



Filename C:\Users\Doug\Desktop\Muslimgauze - Mohammad Ali Jinnah\15 - Hazarajat.wav



Peak level 28.5 %

Extraction speed 2.0 X

Track quality 100.0 %

Test CRC 5F560452

Copy CRC 5F560452

Track not present in AccurateRip database

Copy OK





None of the tracks are present in the AccurateRip database



No errors occurred



End of status report



–– CUETools DB Plugin V2.1.6



[CTDB TOCID: NcRJddefamW2HGQ1ycgUGqtiPWc-] found

Submit result: NcRJddefamW2HGQ1ycgUGqtiPWc- has been confirmed

Track | CTDB Status

1 | (1/1) Accurately ripped

2 | (1/1) Accurately ripped

3 | (1/1) Accurately ripped

4 | (1/1) Accurately ripped

5 | (1/1) Accurately ripped

6 | (1/1) Accurately ripped

7 | (1/1) Accurately ripped

8 | (1/1) Accurately ripped

9 | (1/1) Accurately ripped

10 | (1/1) Accurately ripped

11 | (1/1) Accurately ripped

12 | (1/1) Accurately ripped

13 | (1/1) Accurately ripped

14 | (1/1) Accurately ripped

15 | (1/1) Accurately ripped





==== Log checksum F63E15225989FEDF3B82C10C4BC3E39598008BA9F68E22279B1B5AFB99FF41E2 ====


Thanks to the Original ripper ohnoyoko !