Subcategories
Tags
Language
Tags

My Bloody Valentine - Isn’t Anything (Japanese Remastered Reissue, UHQCD) (1988/2021)

Posted By: delpotro
My Bloody Valentine - Isn’t Anything (Japanese Remastered Reissue, UHQCD) (1988/2021)

My Bloody Valentine - Isn’t Anything (Japanese Remastered Reissue, UHQCD) (1988/2021)
XLD Rip | FLAC (tracks+log+.cue) - 254 Mb | MP3 CBR 320 kbps - 93 Mb | Scans included | 00:38:05
Shoegaze, Psychedelic Rock, Noise Rock | Label: MBV Records, Domino

my bloody valentine, the quartet of Bilinda Butcher, Kevin Shields, Deb Googe and Colm Ó Cíosóig, are widely revered as one of the most ground-breaking and influential groups of the past forty years. During an era in which guitar bands denoted, at best, a retro-classicism, not only did my bloody valentine sound unlike any of their contemporaries, the band achieved the rare feat of sounding like the future.

With their debut album, Isn’t Anything (originally released in 1988), my bloody valentine revolutionised alternative music and heralded a new approach to guitar music for generations to come. The album birthed a sound which became a template for thousands of new subgenres, heralding a new approach to guitar music and studio production. Not only was it a new type of music, it paved the way for a new type of journalism; inciting comparisons to elemental phenomenon, tapping into how the music affected the psyche. Shields and Butcher frequently sang in a similar vocal range that allowed their voices to blend together. This had the effect of making their gender indistinguishable, to the point where their voices could be used as another melodic layer to complement the vertigo-inducing sounds made by Shields’ guitars.

The second my bloody valentine album, loveless, was released in 1991. Musically, it took an unexpected leap forwards, standing ahead of anything released at the time. Shields and the band moved further towards a music of pure sensation, creating textures and tones that could be felt as much as heard; with loveless the band created an album that overwhelmed the senses. loveless is widely considered a flawless whole and rightly regarded as a masterpiece; a 1990s equivalent to Pet Sounds, In A Silent Way or Innervisions, a record constructed by exploring the edges of what a recording studio is capable of. It is a record best experienced as a whole, in one sitting - a listening experience like no other and unmatchable in its sonic brevity.

ep’s 1988-1991 and rare tracks compiles the group’s four EPs, wherein many of their devoted fans’ favourite music lies. You Made Me Realise and Feed Me With Your Kiss both preceded the band’s debut album in 1988 in quick succession. In the gap between Isn’t Anything and loveless, the band released two further EPs; Glider (1990) and Tremolo (1991).

Finally re-emerging in 2013 after two full decades in relative hiding, their third album m b v is by turns their most experimental record but also their most melodic and immediate; proof real of their unerring desire for re-invention. Continuing to push boundaries of both music and genre, m b v is an album of astonishing music, some of which could lay claim to being of a type never been made before. Otherworldly, intimate and a visceral listen, m b v is a startling and beautiful metamorphosis of what was known of the my bloody valentine sound, pushing the boundaries of genre unlike any other band. The album’s closer, “Wonder 2” is an example of this, seeing Shields meld hypnotic guitar with drum’n’bass to astonishing result."
Tracklist:
1. Soft As Snow (But Warm Inside) (02:21)
2. Lose My Breath (03:38)
3. Cupid Come (04:29)
4. (When You Wake) You’re Still In A Dream (03:18)
5. No More Sorry (02:47)
6. All I Need (03:05)
7. Feed Me With Your Kiss (03:54)
8. Sueisfine (02:12)
9. Several Girls Galore (02:21)
10. You Never Should (03:23)
11. Nothing Much To Lose (03:17)
12. I Can See It (But I Can’t Feel It) (03:12)

X Lossless Decoder version 20210101 (153.1)

XLD extraction logfile from 2021-06-18 18:48:46 -0400

My Bloody Valentine / Isn't Anything

Used drive : HL-DT-ST DVDRW GX40N (revision RQ00)
Media type : Pressed CD

Ripper mode : XLD Secure Ripper
Disable audio cache : OK for the drive with a cache less than 1375KiB
Make use of C2 pointers : NO
Read offset correction : 6
Max retry count : 100
Gap status : Analyzed, Appended (except HTOA)

TOC of the extracted CD
Track | Start | Length | Start sector | End sector
––––––––––––––––––––––––––––-
1 | 00:00:00 | 02:22:17 | 0 | 10666
2 | 02:22:17 | 03:38:00 | 10667 | 27016
3 | 06:00:17 | 04:29:61 | 27017 | 47252
4 | 10:30:03 | 03:18:48 | 47253 | 62150
5 | 13:48:51 | 02:47:60 | 62151 | 74735
6 | 16:36:36 | 03:05:02 | 74736 | 88612
7 | 19:41:38 | 03:54:70 | 88613 | 106232
8 | 23:36:33 | 02:12:71 | 106233 | 116203
9 | 25:49:29 | 02:21:12 | 116204 | 126790
10 | 28:10:41 | 03:23:03 | 126791 | 142018
11 | 31:33:44 | 03:17:53 | 142019 | 156846
12 | 34:51:22 | 03:14:51 | 156847 | 171447

AccurateRip Summary
Disc not found in AccurateRip DB.

All Tracks
Album gain : -9.00 dB
Peak : 0.999847
Statistics
Read error : 0
Jitter error (maybe fixed) : 0
Retry sector count : 0
Damaged sector count : 0

Track 01
Filename : /Users/theowner/Downloads/My Bloody Valentine - Isn't Anything (1988) [FLAC]/01 Soft As Snow (But Warm Inside).flac
Pre-gap length : 00:02:00

Track gain : -6.75 dB
Peak : 0.999542
CRC32 hash (test run) : 0464E71C
CRC32 hash : 0464E71C
CRC32 hash (skip zero) : BC62E5DA
AccurateRip v1 signature : BC197809
AccurateRip v2 signature : CB204EE3
->Track not present in AccurateRip database.
Statistics
Read error : 0
Jitter error (maybe fixed) : 0
Retry sector count : 0
Damaged sector count : 0

Track 02
Filename : /Users/theowner/Downloads/My Bloody Valentine - Isn't Anything (1988) [FLAC]/02 Lose My Breath.flac

Track gain : -4.40 dB
Peak : 0.999756
CRC32 hash (test run) : AB9A2B17
CRC32 hash : AB9A2B17
CRC32 hash (skip zero) : D384AE09
AccurateRip v1 signature : 84A77B4A
AccurateRip v2 signature : B4F8B2A2
->Track not present in AccurateRip database.
Statistics
Read error : 0
Jitter error (maybe fixed) : 0
Retry sector count : 0
Damaged sector count : 0

Track 03
Filename : /Users/theowner/Downloads/My Bloody Valentine - Isn't Anything (1988) [FLAC]/03 Cupid Come.flac

Track gain : -7.33 dB
Peak : 0.999512
CRC32 hash (test run) : 98ACAB19
CRC32 hash : 98ACAB19
CRC32 hash (skip zero) : 35588373
AccurateRip v1 signature : B6D9E69A
AccurateRip v2 signature : 60CAF51F
->Track not present in AccurateRip database.
Statistics
Read error : 0
Jitter error (maybe fixed) : 0
Retry sector count : 0
Damaged sector count : 0

Track 04
Filename : /Users/theowner/Downloads/My Bloody Valentine - Isn't Anything (1988) [FLAC]/04 (When You Wake) You're Still In A Dream.flac

Track gain : -10.79 dB
Peak : 0.999847
CRC32 hash (test run) : C425C74D
CRC32 hash : C425C74D
CRC32 hash (skip zero) : AB8406EC
AccurateRip v1 signature : 348C5A79
AccurateRip v2 signature : CC055530
->Track not present in AccurateRip database.
Statistics
Read error : 0
Jitter error (maybe fixed) : 0
Retry sector count : 0
Damaged sector count : 0

Track 05
Filename : /Users/theowner/Downloads/My Bloody Valentine - Isn't Anything (1988) [FLAC]/05 No More Sorry.flac

Track gain : -7.35 dB
Peak : 0.999451
CRC32 hash (test run) : 9AC0F514
CRC32 hash : 9AC0F514
CRC32 hash (skip zero) : 19735B33
AccurateRip v1 signature : 962D7D59
AccurateRip v2 signature : C1581D79
->Track not present in AccurateRip database.
Statistics
Read error : 0
Jitter error (maybe fixed) : 0
Retry sector count : 0
Damaged sector count : 0

Track 06
Filename : /Users/theowner/Downloads/My Bloody Valentine - Isn't Anything (1988) [FLAC]/06 All I Need.flac

Track gain : -9.07 dB
Peak : 0.999756
CRC32 hash (test run) : FD0A7745
CRC32 hash : FD0A7745
CRC32 hash (skip zero) : 56CE7194
AccurateRip v1 signature : 94880F0A
AccurateRip v2 signature : 2AF8292A
->Track not present in AccurateRip database.
Statistics
Read error : 0
Jitter error (maybe fixed) : 0
Retry sector count : 0
Damaged sector count : 0

Track 07
Filename : /Users/theowner/Downloads/My Bloody Valentine - Isn't Anything (1988) [FLAC]/07 Feed Me With Your Kiss.flac

Track gain : -11.61 dB
Peak : 0.999573
CRC32 hash (test run) : 6354C98D
CRC32 hash : 6354C98D
CRC32 hash (skip zero) : AE208AD0
AccurateRip v1 signature : 0F53C04F
AccurateRip v2 signature : B1A4EBBF
->Track not present in AccurateRip database.
Statistics
Read error : 0
Jitter error (maybe fixed) : 0
Retry sector count : 0
Damaged sector count : 0

Track 08
Filename : /Users/theowner/Downloads/My Bloody Valentine - Isn't Anything (1988) [FLAC]/08 Sueisfine.flac

Track gain : -10.01 dB
Peak : 0.999481
CRC32 hash (test run) : 6930AD49
CRC32 hash : 6930AD49
CRC32 hash (skip zero) : 28B25327
AccurateRip v1 signature : 6A806483
AccurateRip v2 signature : 89F9BA94
->Track not present in AccurateRip database.
Statistics
Read error : 0
Jitter error (maybe fixed) : 0
Retry sector count : 0
Damaged sector count : 0

Track 09
Filename : /Users/theowner/Downloads/My Bloody Valentine - Isn't Anything (1988) [FLAC]/09 Several Girls Galore.flac

Track gain : -8.33 dB
Peak : 0.999359
CRC32 hash (test run) : 346B9C1C
CRC32 hash : 346B9C1C
CRC32 hash (skip zero) : E96AC584
AccurateRip v1 signature : 9860C343
AccurateRip v2 signature : 928491C7
->Track not present in AccurateRip database.
Statistics
Read error : 0
Jitter error (maybe fixed) : 0
Retry sector count : 0
Damaged sector count : 0

Track 10
Filename : /Users/theowner/Downloads/My Bloody Valentine - Isn't Anything (1988) [FLAC]/10 You Never Should.flac

Track gain : -10.28 dB
Peak : 0.999542
CRC32 hash (test run) : C919F1F8
CRC32 hash : C919F1F8
CRC32 hash (skip zero) : 999C5BAD
AccurateRip v1 signature : F19DB966
AccurateRip v2 signature : C02FF742
->Track not present in AccurateRip database.
Statistics
Read error : 0
Jitter error (maybe fixed) : 0
Retry sector count : 0
Damaged sector count : 0

Track 11
Filename : /Users/theowner/Downloads/My Bloody Valentine - Isn't Anything (1988) [FLAC]/11 Nothing Much To Lose.flac

Track gain : -9.57 dB
Peak : 0.999542
CRC32 hash (test run) : 901CFFED
CRC32 hash : 901CFFED
CRC32 hash (skip zero) : EC3236A8
AccurateRip v1 signature : FFBF11DF
AccurateRip v2 signature : DFF8155C
->Track not present in AccurateRip database.
Statistics
Read error : 0
Jitter error (maybe fixed) : 0
Retry sector count : 0
Damaged sector count : 0

Track 12
Filename : /Users/theowner/Downloads/My Bloody Valentine - Isn't Anything (1988) [FLAC]/12 I Can See It (But I Can't Feel It).flac

Track gain : -6.92 dB
Peak : 0.999512
CRC32 hash (test run) : AE4B9BDD
CRC32 hash : AE4B9BDD
CRC32 hash (skip zero) : D8D72282
AccurateRip v1 signature : CD4CB549
AccurateRip v2 signature : CE3BDBAD
->Track not present in AccurateRip database.
Statistics
Read error : 0
Jitter error (maybe fixed) : 0
Retry sector count : 0
Damaged sector count : 0

No errors occurred

End of status report

––-BEGIN XLD SIGNATURE––-
BlDVrKU3xx_mo.BVw34zE0N.pnfI8Ub3wx_aUsbS4obGOH9Wi_zimfA65E1Hwr4oJ43c7gIYZsBw0j7JOYCfZJQkyhaQXQM9pbb6Yhy
––-END XLD SIGNATURE––-

Thanks to the Original ripper !