Subcategories

Nana Mouskouri - 20 Beautiful Songs (1999) [Repost]

Posted By: Speedyclick
Nana Mouskouri - 20 Beautiful Songs (1999) [Repost]

Nana Mouskouri - 20 Beautiful Songs (1999)
EAC Rip | FLAC (image & cue & log) & mp3 @ 320 kbps | tracks: 20 | Scans | 1:16:29 | ~ 481 Mb & 172 Mb
5% recovery record | Pop, folk, ballads, boleros

Beautiful russian album where the greek diva with the angelic voice interprets 20 tender songs of various styles: from latin america's Guantanamera, Siboney, Malaguena salerosa and Historia de un amor, to the classical Habanera from Carmen, Albinoni's Adagio and Schubert's Ave Maria. Enjoy really delightful music from one of the best voices ever.

TRACKLIST
01. Amapola 03:44
02. Guantanamera 03:46
03. La Llorona 03:45
04. En Aranjuez Con Mi Amor 04:47
05. El Humanhuaqueno 03:12
06. Yolanda 04:39
07. Adagio 04:35
08. Siboney 03:40
09. Malaguena Salerosa 04:09
10. Granada 04:06
11. Historia De Un Amor 03:45
12. Volver, Volver 03:17
13. La Violetera 03:45
14. Vaya Con Dios 03:18
15. Habanera 03:59
16. Cuando Sale La Luna 02:33
17. Quiereme Mucho 03:30
18. La Paloma 04:16
19. La Hiedra 03:35
20. Ave Maria 03:56

Exact Audio Copy V1.0 beta 3 from 29. August 2011

EAC extraction logfile from 22. January 2013, 20:24

Nana Mouskouri / 20 beautiful songs

Used drive : HL-DT-STDVDRAM GH10N Adapter: 1 ID: 1

Read mode : Secure
Utilize accurate stream : Yes
Defeat audio cache : Yes
Make use of C2 pointers : No

Read offset correction : 667
Overread into Lead-In and Lead-Out : No
Fill up missing offset samples with silence : Yes
Delete leading and trailing silent blocks : No
Null samples used in CRC calculations : Yes
Used interface : Native Win32 interface for Win NT & 2000

Used output format : User Defined Encoder
Selected bitrate : 1024 kBit/s
Quality : High
Add ID3 tag : Yes
Command line compressor : C:\Program Files\Exact Audio Copy New\Flac\flac.exe
Additional command line options : -V -5 -T "artist=%artist%" -T "title=%title%" -T "album=%albumtitle%" -T "tracknumber=%tracknr2%" -T "genre=%genre%" -5 %source%


TOC of the extracted CD

Track | Start | Length | Start sector | End sector
––––––––––––––––––––––––––––-
1 | 0:00.00 | 3:44.45 | 0 | 16844
2 | 3:44.45 | 3:46.42 | 16845 | 33836
3 | 7:31.12 | 3:45.23 | 33837 | 50734
4 | 11:16.35 | 4:47.40 | 50735 | 72299
5 | 16:04.00 | 3:12.40 | 72300 | 86739
6 | 19:16.40 | 4:39.27 | 86740 | 107691
7 | 23:55.67 | 4:35.70 | 107692 | 128386
8 | 28:31.62 | 3:40.23 | 128387 | 144909
9 | 32:12.10 | 4:09.32 | 144910 | 163616
10 | 36:21.42 | 4:06.63 | 163617 | 182129
11 | 40:28.30 | 3:45.67 | 182130 | 199071
12 | 44:14.22 | 3:17.43 | 199072 | 213889
13 | 47:31.65 | 3:45.70 | 213890 | 230834
14 | 51:17.60 | 3:18.67 | 230835 | 245751
15 | 54:36.52 | 3:59.60 | 245752 | 263736
16 | 58:36.37 | 2:33.73 | 263737 | 275284
17 | 61:10.35 | 3:30.07 | 275285 | 291041
18 | 64:40.42 | 4:16.38 | 291042 | 310279
19 | 68:57.05 | 3:35.47 | 310280 | 326451
20 | 72:32.52 | 3:56.30 | 326452 | 344181


Range status and errors

Selected range

Filename S:\MUSIC\Uploaded\Nana Mouskouri - 20 Beautiful Songs (1999)\Nana Mouskouri - 20 Beautiful Songs.wav

Peak level 100.0 %
Extraction speed 6.2 X
Range quality 100.0 %
Test CRC 7B4B68B9
Copy CRC 7B4B68B9
Copy OK

No errors occurred


AccurateRip summary

Track 1 not present in database
Track 2 not present in database
Track 3 not present in database
Track 4 not present in database
Track 5 not present in database
Track 6 not present in database
Track 7 not present in database
Track 8 not present in database
Track 9 not present in database
Track 10 not present in database
Track 11 not present in database
Track 12 not present in database
Track 13 not present in database
Track 14 not present in database
Track 15 not present in database
Track 16 not present in database
Track 17 not present in database
Track 18 not present in database
Track 19 not present in database
Track 20 not present in database

None of the tracks are present in the AccurateRip database

End of status report

–– CUETools DB Plugin V2.1.3

[CTDB TOCID: tnzpZAagX8XYOVIPvHvLZMyHNFo-] disk not present in database, Submit result: tnzpZAagX8XYOVIPvHvLZMyHNFo- has been uploaded


==== Log checksum EA90093ECE92DB7555F609A78C54AD89910F84277D7958FB13C44DE4EDBB3FE8 ====


All credits go to the initial uploader