Subcategories

Nat Adderley - Autobiography (1966) {2012 Japan Jazz Best Collection 1000 Series 24bit WPCR-27011}

Posted By: ruskaval
Nat Adderley - Autobiography (1966) {2012 Japan Jazz Best Collection 1000 Series 24bit WPCR-27011}

Nat Adderley - Autobiography (1966) {2012 Japan Jazz Best Collection 1000 Series 24bit WPCR-27011}
EAC rip (secure mode) | FLAC (tracks)+CUE+LOG -> 244 Mb | MP3 @320 -> 86 Mb
Full Artwork @ 600 dpi (png) -> 105 Mb | 5% repair rar | 24-bit remaster
© 1966, 2012 Atlantic / Rhino / Warner Japan / WEA | WPCR-27011 | Jazz Best Collection 1000 Series
Jazz / Hard Bop / Soul Jazz / Cornet

Features 24 bit remastering and comes with a mini-description. Cornetist Nat Adderley's first album as a leader after the collapse of Riverside found him switching to Atlantic and performing eight of his most rewarding compositions. With several brass players, Seldon Powell on tenor and flute, pianist Joe Zawinul (who provided the arrangements), bassist Sam Jones, Grady Tate or Bruno Carr on drums and guest spots by Victor Pantoja and Willie Bobo on Latin percussion, Nat performs such numbers as his greatest hit "Work Song," "Sermonette," "The Old Country," "Little Boy With The Sad Eyes" and "Jive Samba." It is a pity that the music on this valuable Lp has yet to be reissued on CD.
Nat Adderley - Autobiography (1966) {2012 Japan Jazz Best Collection 1000 Series 24bit WPCR-27011}


Personnel:
Nat Adderley - cornet
Ernie Royal - trumpet
Benny Powell - bass trombone
Don Butterfield - tuba
Seldon Powell - tenor sax or flute
Joe Zawinul - piano
Sam Jones - bass
Grady Tate -drums
Tony Studd - trombone
Bruno Carr - drums
Victor Pantoja - conga
Willie Bobo - percussion

Recorded on 21st and 22nd December 1964 and 7th January 1965.
Arranged and conducted by Joe Zawinul.


tracklist:
01 - Sermonette
02 - Work Song
03 - The Old Country
04 - Junkanoo
05 - Stony Island
06 - Little Boy With The Sad Eyes
07 - Never Say Yes
08 - Jive Samba

Exact Audio Copy V1.3 from 2. September 2016

EAC extraction logfile from 9. September 2017, 12:48

Nat Adderley / Autobiography

Used drive : TSSTcorpCDDVDW SE-208DB Adapter: 1 ID: 1

Read mode : Secure
Utilize accurate stream : Yes
Defeat audio cache : Yes
Make use of C2 pointers : No

Read offset correction : 6
Overread into Lead-In and Lead-Out : No
Fill up missing offset samples with silence : Yes
Delete leading and trailing silent blocks : No
Null samples used in CRC calculations : Yes
Used interface : Native Win32 interface for Win NT & 2000
Gap handling : Appended to previous track

Used output format : User Defined Encoder
Selected bitrate : 1024 kBit/s
Quality : High
Add ID3 tag : No
Command line compressor : C:\Program Files (x86)\FLAC Frontend\tools\flac.exe
Additional command line options : -8 -V -T "ARTIST=%artist%" -T "TITLE=%title%" -T "ALBUM=%albumtitle%" -T "DATE=%year%" -T "TRACKNUMBER=%tracknr%" -T "TOTALTRACKS=%numtracks%" -T "GENRE=%genre%" -T "ALBUMARTIST=%albumartist%" -T "ALBUM ARTIST=%albumartist%" -T "COMMENT=EAC Secure Mode, Test & Copy, AccurateRip, FLAC -8" %source%


TOC of the extracted CD

Track | Start | Length | Start sector | End sector
––––––––––––––––––––––––––––-
1 | 0:00.00 | 5:55.74 | 0 | 26698
2 | 5:55.74 | 3:59.10 | 26699 | 44633
3 | 9:55.09 | 4:28.50 | 44634 | 64783
4 | 14:23.59 | 3:04.51 | 64784 | 78634
5 | 17:28.35 | 3:34.03 | 78635 | 94687
6 | 21:02.38 | 6:06.52 | 94688 | 122189
7 | 27:09.15 | 4:30.35 | 122190 | 142474
8 | 31:39.50 | 5:18.60 | 142475 | 166384


Track 1

Filename E:\EAC_RIP\Nat Adderley - Autobiography (1966) [FLAC] {Atlantic Japan WPCR-27011 rel 2012}\01 - Sermonette.wav

Pre-gap length 0:00:02.00

Peak level 100.0 %
Extraction speed 2.3 X
Track quality 100.0 %
Test CRC 2A36CA7D
Copy CRC 2A36CA7D
Accurately ripped (confidence 1) [FF3F8CC9] (AR v2)
Copy OK

Track 2

Filename E:\EAC_RIP\Nat Adderley - Autobiography (1966) [FLAC] {Atlantic Japan WPCR-27011 rel 2012}\02 - Work Song.wav

Pre-gap length 0:00:01.13

Peak level 100.0 %
Extraction speed 2.5 X
Track quality 100.0 %
Test CRC 9022D7C0
Copy CRC 9022D7C0
Accurately ripped (confidence 1) [482C0FFF] (AR v2)
Copy OK

Track 3

Filename E:\EAC_RIP\Nat Adderley - Autobiography (1966) [FLAC] {Atlantic Japan WPCR-27011 rel 2012}\03 - The Old Country.wav

Pre-gap length 0:00:01.37

Peak level 100.0 %
Extraction speed 2.7 X
Track quality 100.0 %
Test CRC A4858DBF
Copy CRC A4858DBF
Accurately ripped (confidence 1) [F6830CB2] (AR v2)
Copy OK

Track 4

Filename E:\EAC_RIP\Nat Adderley - Autobiography (1966) [FLAC] {Atlantic Japan WPCR-27011 rel 2012}\04 - Junkanoo.wav

Pre-gap length 0:00:01.20

Peak level 100.0 %
Extraction speed 2.7 X
Track quality 100.0 %
Test CRC 2DC79BC3
Copy CRC 2DC79BC3
Accurately ripped (confidence 1) [65613FF5] (AR v2)
Copy OK

Track 5

Filename E:\EAC_RIP\Nat Adderley - Autobiography (1966) [FLAC] {Atlantic Japan WPCR-27011 rel 2012}\05 - Stony Island.wav

Pre-gap length 0:00:01.22

Peak level 100.0 %
Extraction speed 2.9 X
Track quality 100.0 %
Test CRC 4F9C731D
Copy CRC 4F9C731D
Accurately ripped (confidence 1) [70B3527C] (AR v2)
Copy OK

Track 6

Filename E:\EAC_RIP\Nat Adderley - Autobiography (1966) [FLAC] {Atlantic Japan WPCR-27011 rel 2012}\06 - Little Boy With The Sad Eyes.wav

Pre-gap length 0:00:01.54

Peak level 100.0 %
Extraction speed 3.3 X
Track quality 100.0 %
Test CRC 24C68489
Copy CRC 24C68489
Accurately ripped (confidence 1) [52F11273] (AR v2)
Copy OK

Track 7

Filename E:\EAC_RIP\Nat Adderley - Autobiography (1966) [FLAC] {Atlantic Japan WPCR-27011 rel 2012}\07 - Never Say Yes.wav

Pre-gap length 0:00:01.17

Peak level 100.0 %
Extraction speed 3.4 X
Track quality 100.0 %
Test CRC FE4BFE6C
Copy CRC FE4BFE6C
Accurately ripped (confidence 1) [F84CA91B] (AR v2)
Copy OK

Track 8

Filename E:\EAC_RIP\Nat Adderley - Autobiography (1966) [FLAC] {Atlantic Japan WPCR-27011 rel 2012}\08 - Jive Samba.wav

Pre-gap length 0:00:01.16

Peak level 100.0 %
Extraction speed 3.6 X
Track quality 100.0 %
Test CRC 3010997E
Copy CRC 3010997E
Accurately ripped (confidence 1) [A3046159] (AR v2)
Copy OK


All tracks accurately ripped

No errors occurred

End of status report

–– CUETools DB Plugin V2.1.6

[CTDB TOCID: 1zlpHqaZmm7BgBpKCVplOKR_.5c-] found
Submit result: 1zlpHqaZmm7BgBpKCVplOKR_.5c- has been confirmed
Track | CTDB Status
1 | (4/4) Accurately ripped
2 | (4/4) Accurately ripped
3 | (4/4) Accurately ripped
4 | (4/4) Accurately ripped
5 | (4/4) Accurately ripped
6 | (4/4) Accurately ripped
7 | (4/4) Accurately ripped
8 | (4/4) Accurately ripped


==== Log checksum C9F55D8D228862085E0D514654F6EC383CB186003B8B195C2A96F8EE12264EC2 ====


Nat Adderley - Autobiography (1966) {2012 Japan Jazz Best Collection 1000 Series 24bit WPCR-27011}

Nat Adderley - Autobiography (1966) {2012 Japan Jazz Best Collection 1000 Series 24bit WPCR-27011}


see more Japan Jazz Best Collection 1000 Series…

NEXT -> more Japan Jazz Best Collection 1000 Series on the way…


===