Nat King Cole - 10 CD Set (2005)

Posted By: Speedyclick
Nat King Cole - 10 CD Set (2005)

Nat King Cole - 10 CD Set (2005)
EAC Rip | FLAC (image & cue & log) & mp3 @ 320 kbps | tracks: 233 | Scans | 11:20:00 | ~ 2,35 Gb & 1,52 Gb
Label: Membran Music Ltd. | 5% recovery record | Original remastered recordings | Genre: Jazz, R&B, pop

Wonderful compilation of 233 songs with legendary Nat King Cole, in excellent sound quality for original recordings of 30's and 40's. It is the most complete Cole's collection in one set, for the pre-Capitol recordings with the Capitol era remarkably well-represented as well. Superb hep-cat jive, the supple swing of bass, guitar and Nat's amazing piano, topped with cool vocals by Nat and occasional female guest singers. Enjoy.

Nat King Cole - 10 CD Set (2005)

CD1: Harlem swing (1:04:45 | ~ 238 Mb & 149 Mb)

TRACKLIST
01. Dixie Jamboree
02. There's No Anaesthetic for Love
03. Ta-De-Ah
04. Riffin'at the Bar-B-Q
05. Harlem Swing
06. I Lost Control of Myself
07. The Land of Make Believe
08. That 'Please Be Mineable' Feeling
09. Dancing in the Street
10. You're So Different
11. I Wouldn't Have Known It
12. Let's Get Happy
13. I Like to Riff
14. On the Sunny Side of the Street
15. Black Spider Stomp
16. By the River Sainte Marie
17. Sweet Lorraine
18. Honeysuckle Rose
19. Gone With the Draft
20. This Side Up
21. Babs
22. Scotchin' With the Soda
23. Slow Down
24. Early Morning Blues

Exact Audio Copy V1.0 beta 3 from 29. August 2011

EAC extraction logfile from 18. April 2012, 5:08

Nat King Cole / 10 CD-Set CD01

Used drive : HL-DT-STDVDRAM GH10N Adapter: 1 ID: 1

Read mode : Secure
Utilize accurate stream : Yes
Defeat audio cache : Yes
Make use of C2 pointers : No

Read offset correction : 667
Overread into Lead-In and Lead-Out : No
Fill up missing offset samples with silence : Yes
Delete leading and trailing silent blocks : No
Null samples used in CRC calculations : Yes
Used interface : Native Win32 interface for Win NT & 2000

Used output format : User Defined Encoder
Selected bitrate : 1024 kBit/s
Quality : High
Add ID3 tag : Yes
Command line compressor : C:\Program Files\Exact Audio Copy New\Flac\flac.exe
Additional command line options : -V -5 -T "artist=%artist%" -T "title=%title%" -T "album=%albumtitle%" -T "tracknumber=%tracknr2%" -T "genre=%genre%" -5 %source%


TOC of the extracted CD

Track | Start | Length | Start sector | End sector
––––––––––––––––––––––––––––-
1 | 0:00.00 | 3:02.11 | 0 | 13660
2 | 3:02.11 | 3:11.70 | 13661 | 28055
3 | 6:14.06 | 2:36.63 | 28056 | 39818
4 | 8:50.69 | 2:03.15 | 39819 | 49058
5 | 10:54.09 | 2:29.08 | 49059 | 60241
6 | 13:23.17 | 3:12.59 | 60242 | 74700
7 | 16:36.01 | 2:48.58 | 74701 | 87358
8 | 19:24.59 | 2:14.00 | 87359 | 97408
9 | 21:38.59 | 3:03.69 | 97409 | 111202
10 | 24:42.53 | 2:57.47 | 111203 | 124524
11 | 27:40.25 | 2:30.21 | 124525 | 135795
12 | 30:10.46 | 2:15.33 | 135796 | 145953
13 | 32:26.04 | 2:48.23 | 145954 | 158576
14 | 35:14.27 | 2:54.01 | 158577 | 171627
15 | 38:08.28 | 2:36.19 | 171628 | 183346
16 | 40:44.47 | 2:22.33 | 183347 | 194029
17 | 43:07.05 | 2:55.47 | 194030 | 207201
18 | 46:02.52 | 2:32.38 | 207202 | 218639
19 | 48:35.15 | 2:41.42 | 218640 | 230756
20 | 51:16.57 | 2:45.60 | 230757 | 243191
21 | 54:02.42 | 2:24.25 | 243192 | 254016
22 | 56:26.67 | 2:30.24 | 254017 | 265290
23 | 58:57.16 | 3:08.09 | 265291 | 279399
24 | 62:05.25 | 2:40.40 | 279400 | 291439


Range status and errors

Selected range

Filename R:\EAC Rips\Nat King Cole - 10 CD Set\nkc01\Nat King Cole - 10 CD-Set CD01.wav

Peak level 100.0 %
Extraction speed 3.9 X
Range quality 99.9 %
Test CRC 75F15239
Copy CRC 75F15239
Copy OK

No errors occurred


AccurateRip summary

Track 1 accurately ripped (confidence 3) [9D6EC02B] (AR v1)
Track 2 accurately ripped (confidence 3) [34964835] (AR v1)
Track 3 accurately ripped (confidence 3) [46502FC2] (AR v1)
Track 4 accurately ripped (confidence 3) [78D8AD82] (AR v1)
Track 5 accurately ripped (confidence 3) [2DF0C0A0] (AR v1)
Track 6 accurately ripped (confidence 3) [26551B23] (AR v1)
Track 7 accurately ripped (confidence 3) [078BC7EF] (AR v1)
Track 8 accurately ripped (confidence 3) [A6A282BC] (AR v1)
Track 9 accurately ripped (confidence 3) [B8DC4DC4] (AR v1)
Track 10 accurately ripped (confidence 3) [9114FD5D] (AR v1)
Track 11 accurately ripped (confidence 3) [7ED99586] (AR v1)
Track 12 accurately ripped (confidence 3) [E9CF64B5] (AR v1)
Track 13 accurately ripped (confidence 3) [BB8F56E1] (AR v1)
Track 14 accurately ripped (confidence 3) [164A07FB] (AR v1)
Track 15 accurately ripped (confidence 3) [D81B7D0B] (AR v1)
Track 16 accurately ripped (confidence 3) [5462DE80] (AR v1)
Track 17 accurately ripped (confidence 3) [AA36F62F] (AR v1)
Track 18 accurately ripped (confidence 3) [544D10E4] (AR v1)
Track 19 accurately ripped (confidence 3) [7DC10F95] (AR v1)
Track 20 accurately ripped (confidence 3) [3BACE981] (AR v1)
Track 21 accurately ripped (confidence 3) [33629988] (AR v1)
Track 22 accurately ripped (confidence 3) [7093CAE6] (AR v1)
Track 23 accurately ripped (confidence 3) [872109AC] (AR v1)
Track 24 accurately ripped (confidence 3) [CCCB0A9C] (AR v1)

All tracks accurately ripped

End of status report

–– CUETools DB Plugin V2.1.3

[CTDB TOCID: oJdrAraouCJ56Ma.Y9ot9rHypqQ-] found, Submit result: oJdrAraouCJ56Ma.Y9ot9rHypqQ- has been confirmed
[60bc1fdd] (1/1) Accurately ripped


==== Log checksum 70097B5E3585DAB03B96112A7D7722476960D6DC7ED51AFD085BE2E2E665B025 ====

Nat King Cole - 10 CD Set (2005)

CD2: Hit That Jive Jack (1:19:20 | ~ 262 Mb & 180 Mb)

TRACKLIST
01. I Like to Riff
02. This Will Make You Laugh
03. Stop! The Red Light's On
04. Hit the Ramp
05. Call the Police
06. Are You Fer It?
07. That Ain't Right
08. Hit That Jive Jack
09. Indiana
10. I Can't Get Started
11. Tea for Two
12. Body and Soul
13. Vom, Vim Veedle
14. All for You
15. Let's Spring One
16. Beautiful Moons Ago
17. Pitchin' Up a Boogie
18. I'm Lost
19. F.S.T. (Fine, Sweet and Tasty)
20. My Lips Remember Your Kisses
21. Cole a Penny
22. Let's Pretend
23. Straighten Up and Fly Right
24. Gee Baby, Ain't I Good to You?

Exact Audio Copy V1.0 beta 3 from 29. August 2011

EAC extraction logfile from 19. April 2012, 1:20

Nat King Cole / 10 CD-Set CD02

Used drive : HL-DT-STDVDRAM GH10N Adapter: 1 ID: 1

Read mode : Secure
Utilize accurate stream : Yes
Defeat audio cache : Yes
Make use of C2 pointers : No

Read offset correction : 667
Overread into Lead-In and Lead-Out : No
Fill up missing offset samples with silence : Yes
Delete leading and trailing silent blocks : No
Null samples used in CRC calculations : Yes
Used interface : Native Win32 interface for Win NT & 2000

Used output format : User Defined Encoder
Selected bitrate : 1024 kBit/s
Quality : High
Add ID3 tag : Yes
Command line compressor : C:\Program Files\Exact Audio Copy New\Flac\flac.exe
Additional command line options : -V -5 -T "artist=%artist%" -T "title=%title%" -T "album=%albumtitle%" -T "tracknumber=%tracknr2%" -T "genre=%genre%" -5 %source%


TOC of the extracted CD

Track | Start | Length | Start sector | End sector
––––––––––––––––––––––––––––-
1 | 0:00.00 | 2:47.37 | 0 | 12561
2 | 2:47.37 | 3:16.29 | 12562 | 27290
3 | 6:03.66 | 2:38.50 | 27291 | 39190
4 | 8:42.41 | 3:22.25 | 39191 | 54365
5 | 12:04.66 | 3:10.10 | 54366 | 68625
6 | 15:15.01 | 3:09.51 | 68626 | 82851
7 | 18:24.52 | 3:15.38 | 82852 | 97514
8 | 21:40.15 | 2:57.49 | 97515 | 110838
9 | 24:37.64 | 4:52.13 | 110839 | 132751
10 | 29:30.02 | 4:52.47 | 132752 | 154698
11 | 34:22.49 | 4:45.72 | 154699 | 176145
12 | 39:08.46 | 5:08.34 | 176146 | 199279
13 | 44:17.05 | 2:58.61 | 199280 | 212690
14 | 47:15.66 | 3:24.10 | 212691 | 228000
15 | 50:40.01 | 2:40.31 | 228001 | 240031
16 | 53:20.32 | 2:24.02 | 240032 | 250833
17 | 55:44.34 | 3:09.56 | 250834 | 265064
18 | 58:54.15 | 3:08.54 | 265065 | 279218
19 | 62:02.69 | 3:04.00 | 279219 | 293018
20 | 65:06.69 | 3:05.31 | 293019 | 306924
21 | 68:12.25 | 2:33.59 | 306925 | 318458
22 | 70:46.09 | 3:14.21 | 318459 | 333029
23 | 74:00.30 | 2:26.04 | 333030 | 343983
24 | 76:26.34 | 2:54.02 | 343984 | 357035


Range status and errors

Selected range

Filename R:\EAC Rips\Nat King Cole - 10 CD Set\nkc02\Nat King Cole - 10 CD-Set CD02.wav

Peak level 100.0 %
Extraction speed 4.2 X
Range quality 100.0 %
Test CRC CBFC1BEF
Copy CRC CBFC1BEF
Copy OK

No errors occurred


AccurateRip summary

Track 1 accurately ripped (confidence 2) [60519A00] (AR v1)
Track 2 accurately ripped (confidence 2) [5BB8A6B3] (AR v1)
Track 3 accurately ripped (confidence 2) [4B48881C] (AR v1)
Track 4 accurately ripped (confidence 2) [13ECC372] (AR v1)
Track 5 accurately ripped (confidence 2) [AA6AB5C8] (AR v1)
Track 6 accurately ripped (confidence 2) [09988CC9] (AR v1)
Track 7 accurately ripped (confidence 2) [2DE38FB9] (AR v1)
Track 8 accurately ripped (confidence 2) [991BC4F4] (AR v1)
Track 9 accurately ripped (confidence 2) [27D4C4FF] (AR v1)
Track 10 accurately ripped (confidence 2) [8F1BD9F5] (AR v1)
Track 11 accurately ripped (confidence 2) [8F6EECA0] (AR v1)
Track 12 accurately ripped (confidence 2) [6C349C9C] (AR v1)
Track 13 accurately ripped (confidence 2) [79DA85F4] (AR v1)
Track 14 accurately ripped (confidence 2) [01084916] (AR v1)
Track 15 accurately ripped (confidence 2) [3E6EC08E] (AR v1)
Track 16 accurately ripped (confidence 2) [CB9C4CD2] (AR v1)
Track 17 accurately ripped (confidence 2) [1FEEC160] (AR v1)
Track 18 accurately ripped (confidence 2) [1E501C60] (AR v1)
Track 19 accurately ripped (confidence 2) [A8B7746C] (AR v1)
Track 20 accurately ripped (confidence 2) [C2720BA2] (AR v1)
Track 21 accurately ripped (confidence 2) [3400261F] (AR v1)
Track 22 accurately ripped (confidence 2) [E574904B] (AR v1)
Track 23 accurately ripped (confidence 2) [93C2A4A5] (AR v1)
Track 24 accurately ripped (confidence 2) [B4F9577D] (AR v1)

All tracks accurately ripped

End of status report

–– CUETools DB Plugin V2.1.3

[CTDB TOCID: OaQwUByKonXzrAzHTF24k8qb2uc-] found, Submit result: OaQwUByKonXzrAzHTF24k8qb2uc- has been confirmed
[fbd6883d] (1/1) Accurately ripped


==== Log checksum 0C0AC1F646456FEF9DFA6256FB7AAFA75E94B0903AC87E6272066354A7ED9A38 ====

Nat King Cole - 10 CD Set (2005)

CD3: What Is This Thing Called Love (1:14:45 | ~ 248 Mb & 167 Mb)

TRACKLIST
01. If You Can't Smile and Say Yes
02. Sweet Lorraine
03. Embraceable You
04. It's Only a Paper Moon
05. I Just Can't See for Lookin'
06. The Man I Love
07. Body and Soul
08. Prelude in C Sharp Minor
09. What Is This Thing Called Love?
10. Heads
11. Pro-Sky
12. It Had to Be You
13. I Can't Give You Anything but Love
14. Look What You've Done to Me
15. Easy Listening Blues
16. I Realize Now
17. Bring Another Drink
18. If You Can't Smile and Say Yes, Please Don't Cry and Say No
19. A Pile O'Cole
20. Any Old Time
21. Bring Another Drink
22. Candy
23. A Trio Grooves in Brooklyn
24. You Can Depend on Me

Exact Audio Copy V1.0 beta 3 from 29. August 2011

EAC extraction logfile from 19. April 2012, 4:00

Nat King Cole / 10 CD-Set CD03

Used drive : HL-DT-STDVDRAM GH10N Adapter: 1 ID: 1

Read mode : Secure
Utilize accurate stream : Yes
Defeat audio cache : Yes
Make use of C2 pointers : No

Read offset correction : 667
Overread into Lead-In and Lead-Out : No
Fill up missing offset samples with silence : Yes
Delete leading and trailing silent blocks : No
Null samples used in CRC calculations : Yes
Used interface : Native Win32 interface for Win NT & 2000

Used output format : User Defined Encoder
Selected bitrate : 1024 kBit/s
Quality : High
Add ID3 tag : Yes
Command line compressor : C:\Program Files\Exact Audio Copy New\Flac\flac.exe
Additional command line options : -V -5 -T "artist=%artist%" -T "title=%title%" -T "album=%albumtitle%" -T "tracknumber=%tracknr2%" -T "genre=%genre%" -5 %source%


TOC of the extracted CD

Track | Start | Length | Start sector | End sector
––––––––––––––––––––––––––––-
1 | 0:00.00 | 3:06.30 | 0 | 13979
2 | 3:06.30 | 3:09.58 | 13980 | 28212
3 | 6:16.13 | 3:23.44 | 28213 | 43481
4 | 9:39.57 | 2:55.52 | 43482 | 56658
5 | 12:35.34 | 3:07.67 | 56659 | 70750
6 | 15:43.26 | 3:20.67 | 70751 | 85817
7 | 19:04.18 | 3:20.17 | 85818 | 100834
8 | 22:24.35 | 2:56.63 | 100835 | 114097
9 | 25:21.23 | 2:58.06 | 114098 | 127453
10 | 28:19.29 | 4:06.40 | 127454 | 145943
11 | 32:25.69 | 4:55.58 | 145944 | 168126
12 | 37:21.52 | 3:47.11 | 168127 | 185162
13 | 41:08.63 | 4:18.12 | 185163 | 204524
14 | 45:27.00 | 3:03.52 | 204525 | 218301
15 | 48:30.52 | 3:11.24 | 218302 | 232650
16 | 51:42.01 | 3:09.74 | 232651 | 246899
17 | 54:52.00 | 2:20.44 | 246900 | 257443
18 | 57:12.44 | 2:34.68 | 257444 | 269061
19 | 59:47.37 | 1:40.53 | 269062 | 276614
20 | 61:28.15 | 2:57.33 | 276615 | 289922
21 | 64:25.48 | 2:35.32 | 289923 | 301579
22 | 67:01.05 | 2:18.44 | 301580 | 311973
23 | 69:19.49 | 2:28.74 | 311974 | 323147
24 | 71:48.48 | 2:57.24 | 323148 | 336446


Range status and errors

Selected range

Filename R:\EAC Rips\Nat King Cole - 10 CD Set\nkc03\Nat King Cole - 10 CD-Set CD03.wav

Peak level 100.0 %
Extraction speed 5.8 X
Range quality 99.9 %
Test CRC E3164C91
Copy CRC E3164C91
Copy OK

No errors occurred


AccurateRip summary

Track 1 accurately ripped (confidence 2) [2B19EEAF] (AR v1)
Track 2 accurately ripped (confidence 2) [13046817] (AR v1)
Track 3 accurately ripped (confidence 2) [227BA7FB] (AR v1)
Track 4 accurately ripped (confidence 3) [EDCF0610] (AR v1)
Track 5 accurately ripped (confidence 2) [DCA0BEE5] (AR v1)
Track 6 accurately ripped (confidence 2) [1307B6FA] (AR v1)
Track 7 accurately ripped (confidence 2) [BF233B17] (AR v1)
Track 8 accurately ripped (confidence 2) [503B2C24] (AR v1)
Track 9 accurately ripped (confidence 2) [662572F2] (AR v1)
Track 10 accurately ripped (confidence 2) [A47886C8] (AR v1)
Track 11 accurately ripped (confidence 2) [094D7DB0] (AR v1)
Track 12 accurately ripped (confidence 2) [ADE5E34E] (AR v1)
Track 13 accurately ripped (confidence 2) [D3222B4A] (AR v1)
Track 14 accurately ripped (confidence 2) [3534143F] (AR v1)
Track 15 accurately ripped (confidence 2) [97CA59E5] (AR v1)
Track 16 accurately ripped (confidence 2) [7329D66B] (AR v1)
Track 17 accurately ripped (confidence 2) [94BA38D4] (AR v1)
Track 18 accurately ripped (confidence 2) [AAE259FA] (AR v1)
Track 19 accurately ripped (confidence 2) [C97692E3] (AR v1)
Track 20 accurately ripped (confidence 2) [7B045F0B] (AR v1)
Track 21 accurately ripped (confidence 2) [0AE5FDDF] (AR v1)
Track 22 accurately ripped (confidence 2) [BE5C5F68] (AR v1)
Track 23 accurately ripped (confidence 2) [F062B365] (AR v1)
Track 24 accurately ripped (confidence 2) [C15B1D05] (AR v1)

All tracks accurately ripped

End of status report

–– CUETools DB Plugin V2.1.3

[CTDB TOCID: DaLapQdIDo62JmCrGkCHB5KvFsY-] found, Submit result: DaLapQdIDo62JmCrGkCHB5KvFsY- has been confirmed
[9718b54b] (1/1) Accurately ripped


==== Log checksum 3F1F8B3FE8C0F8C39D15B7AF0D7A2DEE2BC2BA66D9EEB8D1FB481B165692F920 ====

Nat King Cole - 10 CD Set (2005)

CD4: I'm A Shy Guy (1:11:38 | ~ 274 Mb & 167 Mb)

TRACKLIST
01. Riffamarole
02. Stormy Weather
03. If I Could Be With You
04. I'm a Shy Guy
05. You're Nobody 'Till Somebody Loves You
06. Don't Blame Me
07. What Can I Say After I Say I'm Sorry
08. I'm Thru With Love
09. Sweet Georgia Brown
10. I Tho't You Ought to Know
11. It Only Happens Once
12. Black Market Stuff
13. Laguna Leap
14. I'll Never Be the Same
15. Swingin' On Central
16. Nat's Kick, Part 1
17. Nat's Kick, Part 2
18. Satchel Mouth Baby
19. Solid Potato Salad
20. It Is Better to Be by Yourself
21. Come to Baby, Do
22. The Frim Fram Sauce
23. I'm an Errand Boy for Rhythm
24. This Way Out
25. I Know That You Know

Exact Audio Copy V1.0 beta 3 from 29. August 2011

EAC extraction logfile from 19. April 2012, 10:15

Nat King Cole / 10 CD-Set CD04

Used drive : HL-DT-STDVDRAM GH10N Adapter: 1 ID: 1

Read mode : Secure
Utilize accurate stream : Yes
Defeat audio cache : Yes
Make use of C2 pointers : No

Read offset correction : 667
Overread into Lead-In and Lead-Out : No
Fill up missing offset samples with silence : Yes
Delete leading and trailing silent blocks : No
Null samples used in CRC calculations : Yes
Used interface : Native Win32 interface for Win NT & 2000

Used output format : User Defined Encoder
Selected bitrate : 1024 kBit/s
Quality : High
Add ID3 tag : Yes
Command line compressor : C:\Program Files\Exact Audio Copy New\Flac\flac.exe
Additional command line options : -V -5 -T "artist=%artist%" -T "title=%title%" -T "album=%albumtitle%" -T "tracknumber=%tracknr2%" -T "genre=%genre%" -5 %source%


TOC of the extracted CD

Track | Start | Length | Start sector | End sector
––––––––––––––––––––––––––––-
1 | 0:00.00 | 2:51.04 | 0 | 12828
2 | 2:51.04 | 3:11.39 | 12829 | 27192
3 | 6:02.43 | 2:44.15 | 27193 | 39507
4 | 8:46.58 | 2:55.10 | 39508 | 52642
5 | 11:41.68 | 2:51.33 | 52643 | 65500
6 | 14:33.26 | 3:24.52 | 65501 | 80852
7 | 17:58.03 | 2:34.49 | 80853 | 92451
8 | 20:32.52 | 2:56.06 | 92452 | 105657
9 | 23:28.58 | 2:19.10 | 105658 | 116092
10 | 25:47.68 | 2:53.39 | 116093 | 129106
11 | 28:41.32 | 2:56.59 | 129107 | 142365
12 | 31:38.16 | 2:44.67 | 142366 | 154732
13 | 34:23.08 | 2:57.49 | 154733 | 168056
14 | 37:20.57 | 3:15.55 | 168057 | 182736
15 | 40:36.37 | 2:54.49 | 182737 | 195835
16 | 43:31.11 | 2:53.24 | 195836 | 208834
17 | 46:24.35 | 3:11.44 | 208835 | 223203
18 | 49:36.04 | 2:44.17 | 223204 | 235520
19 | 52:20.21 | 2:06.07 | 235521 | 244977
20 | 54:26.28 | 2:55.58 | 244978 | 258160
21 | 57:22.11 | 3:05.65 | 258161 | 272100
22 | 60:28.01 | 3:18.41 | 272101 | 286991
23 | 63:46.42 | 2:20.15 | 286992 | 297506
24 | 66:06.57 | 3:03.14 | 297507 | 311245
25 | 69:09.71 | 2:28.70 | 311246 | 322415


Range status and errors

Selected range

Filename R:\EAC Rips\Nat King Cole - 10 CD Set\nkc04\Nat King Cole - 10 CD-Set CD04.wav

Peak level 100.0 %
Extraction speed 6.2 X
Range quality 100.0 %
Test CRC 84460B93
Copy CRC 84460B93
Copy OK

No errors occurred


AccurateRip summary

Track 1 accurately ripped (confidence 2) [B438255A] (AR v1)
Track 2 accurately ripped (confidence 2) [CAE7D3D1] (AR v1)
Track 3 accurately ripped (confidence 2) [FFEA0BA1] (AR v1)
Track 4 accurately ripped (confidence 2) [461F17B1] (AR v1)
Track 5 accurately ripped (confidence 2) [871F99E3] (AR v1)
Track 6 accurately ripped (confidence 2) [DE122876] (AR v1)
Track 7 accurately ripped (confidence 2) [7DCB62D3] (AR v1)
Track 8 accurately ripped (confidence 2) [A923E130] (AR v1)
Track 9 accurately ripped (confidence 2) [183C3771] (AR v1)
Track 10 accurately ripped (confidence 2) [ABC4C067] (AR v1)
Track 11 accurately ripped (confidence 2) [671C21BF] (AR v1)
Track 12 accurately ripped (confidence 2) [E94FD237] (AR v1)
Track 13 accurately ripped (confidence 2) [48261A00] (AR v1)
Track 14 accurately ripped (confidence 2) [385888EA] (AR v1)
Track 15 accurately ripped (confidence 2) [BA6EF72F] (AR v1)
Track 16 accurately ripped (confidence 2) [C3957DBD] (AR v1)
Track 17 accurately ripped (confidence 2) [6FAA2B07] (AR v1)
Track 18 accurately ripped (confidence 2) [89152FB4] (AR v1)
Track 19 accurately ripped (confidence 2) [80A755FB] (AR v1)
Track 20 accurately ripped (confidence 2) [4C86F1B7] (AR v1)
Track 21 accurately ripped (confidence 2) [594F647D] (AR v1)
Track 22 accurately ripped (confidence 2) [E94EFC82] (AR v1)
Track 23 accurately ripped (confidence 2) [1E724139] (AR v1)
Track 24 accurately ripped (confidence 2) [B54C1B1E] (AR v1)
Track 25 accurately ripped (confidence 2) [9FBBFC76] (AR v1)

All tracks accurately ripped

End of status report

–– CUETools DB Plugin V2.1.3

[CTDB TOCID: GoBgrm146uDZrh8LgSfu_2oTt6Y-] found, Submit result: GoBgrm146uDZrh8LgSfu_2oTt6Y- has been confirmed
[46cf68ef] (1/1) Accurately ripped


==== Log checksum 81FD4FB2BB95130D21189616B47066280508265A38049287573001842542D371 ====

Nat King Cole - 10 CD Set (2005)

CD5: Route 66 (1:09:52 | ~ 231 Mb & 159 Mb)

TRACKLIST
01. Oh, but I Do
02. How Does It Feel
03. I Can't Believe That You're Love With Me
04. The Way You Look Tonight
05. Airness a La Nat
06. My Old Flame
07. I'm in the Mood for Love
08. I Don't Know Why (I Just Do)
09. Route 66
10. Everyone Is Sayin' Hello Again
11. Route 66
12. What Can I Say After I Say I'm Sorry
13. To a Wild Rose
14. Could-'Ja
15. Baby, Baby All the Time
16. Oh, but I Do
17. Rex Rhumba
18. But She's My Buddy's Chick
19. You Call It Madness (But I Call It Love)
20. The Christmas Song
21. The Best Man
22. The Christmas Song
23. You Should Have Told Me

Exact Audio Copy V1.0 beta 3 from 29. August 2011

EAC extraction logfile from 19. April 2012, 23:33

Nat King Cole / 10 CD-Set CD05

Used drive : HL-DT-STDVDRAM GH10N Adapter: 1 ID: 1

Read mode : Secure
Utilize accurate stream : Yes
Defeat audio cache : Yes
Make use of C2 pointers : No

Read offset correction : 667
Overread into Lead-In and Lead-Out : No
Fill up missing offset samples with silence : Yes
Delete leading and trailing silent blocks : No
Null samples used in CRC calculations : Yes
Used interface : Native Win32 interface for Win NT & 2000

Used output format : User Defined Encoder
Selected bitrate : 1024 kBit/s
Quality : High
Add ID3 tag : Yes
Command line compressor : C:\Program Files\Exact Audio Copy New\Flac\flac.exe
Additional command line options : -V -5 -T "artist=%artist%" -T "title=%title%" -T "album=%albumtitle%" -T "tracknumber=%tracknr2%" -T "genre=%genre%" -5 %source%


TOC of the extracted CD

Track | Start | Length | Start sector | End sector
––––––––––––––––––––––––––––-
1 | 0:00.00 | 2:50.10 | 0 | 12759
2 | 2:50.10 | 2:56.18 | 12760 | 25977
3 | 5:46.28 | 3:04.33 | 25978 | 39810
4 | 8:50.61 | 3:08.71 | 39811 | 53981
5 | 11:59.57 | 2:37.24 | 53982 | 65780
6 | 14:37.06 | 3:02.47 | 65781 | 79477
7 | 17:39.53 | 3:13.03 | 79478 | 93955
8 | 20:52.56 | 3:12.02 | 93956 | 108357
9 | 24:04.58 | 3:02.16 | 108358 | 122023
10 | 27:06.74 | 2:39.72 | 122024 | 134020
11 | 29:46.71 | 3:02.04 | 134021 | 147674
12 | 32:49.00 | 3:03.00 | 147675 | 161399
13 | 35:52.00 | 3:15.37 | 161400 | 176061
14 | 39:07.37 | 3:02.71 | 176062 | 189782
15 | 42:10.33 | 3:01.60 | 189783 | 203417
16 | 45:12.18 | 2:40.13 | 203418 | 215430
17 | 47:52.31 | 3:18.05 | 215431 | 230285
18 | 51:10.36 | 3:07.46 | 230286 | 244356
19 | 54:18.07 | 3:05.02 | 244357 | 258233
20 | 57:23.09 | 3:14.10 | 258234 | 272793
21 | 60:37.19 | 3:06.59 | 272794 | 286802
22 | 63:44.03 | 3:11.74 | 286803 | 301201
23 | 66:56.02 | 2:56.21 | 301202 | 314422


Range status and errors

Selected range

Filename R:\EAC Rips\Nat King Cole - 10 CD Set\nkc05\Nat King Cole - 10 CD-Set CD05.wav

Peak level 100.0 %
Extraction speed 5.9 X
Range quality 99.9 %
Test CRC 980F90A8
Copy CRC 980F90A8
Copy OK

No errors occurred


AccurateRip summary

Track 1 accurately ripped (confidence 2) [E84E2DC3] (AR v1)
Track 2 accurately ripped (confidence 2) [5864BCDD] (AR v1)
Track 3 accurately ripped (confidence 2) [75ED6DBF] (AR v1)
Track 4 accurately ripped (confidence 2) [B1FC3057] (AR v1)
Track 5 accurately ripped (confidence 2) [85523DFB] (AR v1)
Track 6 accurately ripped (confidence 2) [19A81904] (AR v1)
Track 7 accurately ripped (confidence 2) [4C3B2B81] (AR v1)
Track 8 accurately ripped (confidence 2) [5001D6D6] (AR v1)
Track 9 accurately ripped (confidence 2) [B7B99C34] (AR v1)
Track 10 accurately ripped (confidence 2) [A519E7B0] (AR v1)
Track 11 accurately ripped (confidence 2) [9F25CEED] (AR v1)
Track 12 accurately ripped (confidence 2) [F9676F8C] (AR v1)
Track 13 accurately ripped (confidence 2) [B694AD8E] (AR v1)
Track 14 accurately ripped (confidence 2) [69A445F8] (AR v1)
Track 15 accurately ripped (confidence 2) [6A872C37] (AR v1)
Track 16 accurately ripped (confidence 2) [E5484E24] (AR v1)
Track 17 accurately ripped (confidence 2) [73CBE485] (AR v1)
Track 18 accurately ripped (confidence 2) [91DA3842] (AR v1)
Track 19 accurately ripped (confidence 2) [9030FB86] (AR v1)
Track 20 accurately ripped (confidence 2) [DF16660E] (AR v1)
Track 21 accurately ripped (confidence 2) [2293390B] (AR v1)
Track 22 accurately ripped (confidence 2) [A0E75B90] (AR v1)
Track 23 accurately ripped (confidence 2) [D0D3ADC5] (AR v1)

All tracks accurately ripped

End of status report

–– CUETools DB Plugin V2.1.3

[CTDB TOCID: T.bGQ1WfYikCQC_m7Y6mxSW4Rsg-] found, Submit result: T.bGQ1WfYikCQC_m7Y6mxSW4Rsg- has been confirmed
[d71c8e1f] (1/1) Accurately ripped


==== Log checksum 8733BDA76A9DB6ED1E794861DC6666B11513A591F2CA44999639C85B4A67EE99 ====

Nat King Cole - 10 CD Set (2005)

CD6: For Sentimental Reasons (1:03:37 | ~ 185 Mb & 146 Mb)

TRACKLIST
01. (I Love You) For Sentimental Reasons
02. In the Cool of the Evening
03. That's the Beginning of the End
04. Smoke Gets in Your Eyes
05. I Want to Thank You Folks
06. You're the Cream in My Coffee
07. Come in Out of the Rain
08. You Don't Learn That in School
09. You Be You
10. Can You Look Me in the Eyes
11. Meet Me at No Special Place
12. Naughty Angeline
13. I Miss You So
14. That's What
15. Honeysuckle Rose
16. It's Kind of Lonesome Out Tonight
17. For Once in Your Life
18. I Think You Get What I Mean
19. But All I've Got Is Me
20. I Can't Be Bothered
21. When I Take My Sugar to Tea
22. Rhumba Azul

Exact Audio Copy V1.0 beta 3 from 29. August 2011

EAC extraction logfile from 20. April 2012, 0:39

Nat King Cole / 10 CD-Set CD06

Used drive : HL-DT-STDVDRAM GH10N Adapter: 1 ID: 1

Read mode : Secure
Utilize accurate stream : Yes
Defeat audio cache : Yes
Make use of C2 pointers : No

Read offset correction : 667
Overread into Lead-In and Lead-Out : No
Fill up missing offset samples with silence : Yes
Delete leading and trailing silent blocks : No
Null samples used in CRC calculations : Yes
Used interface : Native Win32 interface for Win NT & 2000

Used output format : User Defined Encoder
Selected bitrate : 1024 kBit/s
Quality : High
Add ID3 tag : Yes
Command line compressor : C:\Program Files\Exact Audio Copy New\Flac\flac.exe
Additional command line options : -V -5 -T "artist=%artist%" -T "title=%title%" -T "album=%albumtitle%" -T "tracknumber=%tracknr2%" -T "genre=%genre%" -5 %source%


TOC of the extracted CD

Track | Start | Length | Start sector | End sector
––––––––––––––––––––––––––––-
1 | 0:00.00 | 2:56.36 | 0 | 13235
2 | 2:56.36 | 2:58.20 | 13236 | 26605
3 | 5:54.56 | 3:05.44 | 26606 | 40524
4 | 9:00.25 | 2:55.73 | 40525 | 53722
5 | 11:56.23 | 3:15.02 | 53723 | 68349
6 | 15:11.25 | 2:31.70 | 68350 | 79744
7 | 17:43.20 | 2:58.16 | 79745 | 93110
8 | 20:41.36 | 3:11.72 | 93111 | 107507
9 | 23:53.33 | 3:08.11 | 107508 | 121618
10 | 27:01.44 | 2:50.36 | 121619 | 134404
11 | 29:52.05 | 3:15.14 | 134405 | 149043
12 | 33:07.19 | 2:45.44 | 149044 | 161462
13 | 35:52.63 | 3:06.48 | 161463 | 175460
14 | 38:59.36 | 2:27.16 | 175461 | 186501
15 | 41:26.52 | 2:40.52 | 186502 | 198553
16 | 44:07.29 | 3:16.28 | 198554 | 213281
17 | 47:23.57 | 3:01.40 | 213282 | 226896
18 | 50:25.22 | 2:40.18 | 226897 | 238914
19 | 53:05.40 | 2:51.53 | 238915 | 251792
20 | 55:57.18 | 2:44.55 | 251793 | 264147
21 | 58:41.73 | 2:23.27 | 264148 | 274899
22 | 61:05.25 | 2:32.14 | 274900 | 286313


Range status and errors

Selected range

Filename R:\EAC Rips\Nat King Cole - 10 CD Set\nkc06\Nat King Cole - 10 CD-Set CD06.wav

Peak level 100.0 %
Extraction speed 6.0 X
Range quality 100.0 %
Test CRC 95917A98
Copy CRC 95917A98
Copy OK

No errors occurred


AccurateRip summary

Track 1 accurately ripped (confidence 2) [23F7F3CA] (AR v1)
Track 2 accurately ripped (confidence 2) [6E956CD8] (AR v1)
Track 3 accurately ripped (confidence 2) [098E6D00] (AR v1)
Track 4 accurately ripped (confidence 2) [F9E04A4A] (AR v1)
Track 5 accurately ripped (confidence 2) [4F357FC9] (AR v1)
Track 6 accurately ripped (confidence 2) [15196937] (AR v1)
Track 7 accurately ripped (confidence 2) [6F92EA61] (AR v1)
Track 8 accurately ripped (confidence 2) [351AA727] (AR v1)
Track 9 accurately ripped (confidence 2) [210F108F] (AR v1)
Track 10 accurately ripped (confidence 2) [5DA4DB90] (AR v1)
Track 11 accurately ripped (confidence 2) [55E85567] (AR v1)
Track 12 accurately ripped (confidence 2) [367F9B46] (AR v1)
Track 13 accurately ripped (confidence 2) [7E1E710D] (AR v1)
Track 14 accurately ripped (confidence 2) [20874EB5] (AR v1)
Track 15 accurately ripped (confidence 2) [A9DC3BDB] (AR v1)
Track 16 accurately ripped (confidence 2) [E4D58923] (AR v1)
Track 17 accurately ripped (confidence 2) [96B6F48C] (AR v1)
Track 18 accurately ripped (confidence 2) [6F2CFFD4] (AR v1)
Track 19 accurately ripped (confidence 2) [429F3BA1] (AR v1)
Track 20 accurately ripped (confidence 2) [D8E15CCE] (AR v1)
Track 21 accurately ripped (confidence 2) [09E21722] (AR v1)
Track 22 accurately ripped (confidence 2) [A38DD448] (AR v1)

All tracks accurately ripped

End of status report

–– CUETools DB Plugin V2.1.3

[CTDB TOCID: vIh8cfn0baBGnEpQF.dNR9DfdSs-] found, Submit result: vIh8cfn0baBGnEpQF.dNR9DfdSs- has been confirmed
[aa099504] (1/1) Accurately ripped


==== Log checksum 28B48E37C7258EF79D270CF2FE1BD9CF8FDFC39D6E79EB47B48AF24BFA7D98CB ====

Nat King Cole - 10 CD Set (2005)

CD7: These Foolish Things (1:04:35 | ~ 207 Mb & 148 Mb)

TRACKLIST
01. I Never Had a Chance
02. What'll Do
03. This Is My Night to Dream
04. Makin' Whoopee
05. There I've Said It Again
06. I'll String Along With You
07. The Trouble With Me Is You
08. Too Marvelous for Words
09. Three Little Words
10. Moonlight in Vermont
11. Poor Butterfly
12. How High the Moon
13. I'll Never Be the Same
14. These Foolish Things
15. Cole Capers
16. Blues in My Shower
17. Wanna Be a Friend of Yours
18. Ke Mo Ki (The Magic Song)
19. Three Blind Mice
20. Save the Bones for Henry Jones
21. My Baby Likes to Be-Bop
22. Harmony
23. You Can't Make Money Dreamin'
24. There's a Train Out for Dreamland

Exact Audio Copy V1.0 beta 3 from 29. August 2011

EAC extraction logfile from 20. April 2012, 1:56

Nat King Cole / 10 CD-Set CD07

Used drive : HL-DT-STDVDRAM GH10N Adapter: 1 ID: 1

Read mode : Secure
Utilize accurate stream : Yes
Defeat audio cache : Yes
Make use of C2 pointers : No

Read offset correction : 667
Overread into Lead-In and Lead-Out : No
Fill up missing offset samples with silence : Yes
Delete leading and trailing silent blocks : No
Null samples used in CRC calculations : Yes
Used interface : Native Win32 interface for Win NT & 2000

Used output format : User Defined Encoder
Selected bitrate : 1024 kBit/s
Quality : High
Add ID3 tag : Yes
Command line compressor : C:\Program Files\Exact Audio Copy New\Flac\flac.exe
Additional command line options : -V -5 -T "artist=%artist%" -T "title=%title%" -T "album=%albumtitle%" -T "tracknumber=%tracknr2%" -T "genre=%genre%" -5 %source%


TOC of the extracted CD

Track | Start | Length | Start sector | End sector
––––––––––––––––––––––––––––-
1 | 0:00.00 | 2:51.45 | 0 | 12869
2 | 2:51.45 | 3:04.39 | 12870 | 26708
3 | 5:56.09 | 2:23.61 | 26709 | 37494
4 | 8:19.70 | 2:31.74 | 37495 | 48893
5 | 10:51.69 | 3:11.73 | 48894 | 63291
6 | 14:03.67 | 3:12.55 | 63292 | 77746
7 | 17:16.47 | 2:24.70 | 77747 | 88616
8 | 19:41.42 | 2:33.61 | 88617 | 100152
9 | 22:15.28 | 2:39.51 | 100153 | 112128
10 | 24:55.04 | 3:13.11 | 112129 | 126614
11 | 28:08.15 | 2:34.05 | 126615 | 138169
12 | 30:42.20 | 2:41.32 | 138170 | 150276
13 | 33:23.52 | 2:49.64 | 150277 | 163015
14 | 36:13.41 | 3:14.09 | 163016 | 177574
15 | 39:27.50 | 1:55.46 | 177575 | 186245
16 | 41:23.21 | 2:53.02 | 186246 | 199222
17 | 44:16.23 | 2:12.21 | 199223 | 209143
18 | 46:28.44 | 2:21.70 | 209144 | 219788
19 | 48:50.39 | 2:35.62 | 219789 | 231475
20 | 51:26.26 | 2:40.56 | 231476 | 243531
21 | 54:07.07 | 2:27.23 | 243532 | 254579
22 | 56:34.30 | 2:56.56 | 254580 | 267835
23 | 59:31.11 | 2:36.59 | 267836 | 279594
24 | 62:07.70 | 2:27.63 | 279595 | 290682


Range status and errors

Selected range

Filename R:\EAC Rips\Nat King Cole - 10 CD Set\nkc07\Nat King Cole - 10 CD-Set CD07.wav

Peak level 100.0 %
Extraction speed 5.0 X
Range quality 99.9 %
Test CRC 6AA8CA4C
Copy CRC 6AA8CA4C
Copy OK

No errors occurred


AccurateRip summary

Track 1 accurately ripped (confidence 2) [5FA8F0AA] (AR v1)
Track 2 accurately ripped (confidence 2) [B97ED456] (AR v1)
Track 3 accurately ripped (confidence 2) [1A561CD4] (AR v1)
Track 4 accurately ripped (confidence 2) [1F296064] (AR v1)
Track 5 accurately ripped (confidence 2) [E1BFF300] (AR v1)
Track 6 cannot be verified as accurate (confidence 4) [C82FDB59], AccurateRip returned [2BF07A7D] (AR v2)
Track 7 accurately ripped (confidence 2) [AF7574A8] (AR v1)
Track 8 accurately ripped (confidence 2) [983F15E9] (AR v1)
Track 9 accurately ripped (confidence 2) [5546896A] (AR v1)
Track 10 accurately ripped (confidence 2) [F9D99FB9] (AR v1)
Track 11 accurately ripped (confidence 2) [CB94C4F5] (AR v1)
Track 12 accurately ripped (confidence 2) [513F1041] (AR v1)
Track 13 accurately ripped (confidence 2) [6B1624FF] (AR v1)
Track 14 accurately ripped (confidence 2) [280FBB21] (AR v1)
Track 15 accurately ripped (confidence 2) [28371588] (AR v1)
Track 16 accurately ripped (confidence 2) [AF50D94D] (AR v1)
Track 17 accurately ripped (confidence 2) [5555F50C] (AR v1)
Track 18 accurately ripped (confidence 2) [4E5CB17F] (AR v1)
Track 19 accurately ripped (confidence 2) [66C912D1] (AR v1)
Track 20 accurately ripped (confidence 2) [794E8043] (AR v1)
Track 21 accurately ripped (confidence 2) [9332A95D] (AR v1)
Track 22 accurately ripped (confidence 2) [6C58D137] (AR v1)
Track 23 accurately ripped (confidence 2) [0D05DA9E] (AR v1)
Track 24 accurately ripped (confidence 2) [D26EAE13] (AR v1)

23 track(s) accurately ripped
1 track(s) could not be verified as accurate

Some tracks could not be verified as accurate

End of status report

–– CUETools DB Plugin V2.1.3

[CTDB TOCID: RWWF54ybDVEK77QG1y8Rrfg3obE-] found, Submit result: RWWF54ybDVEK77QG1y8Rrfg3obE- has been uploaded
[37b7225a] (1/1) Differs in 4 samples @14:19:27,14:22:09
You can use CUETools to repair this rip.


==== Log checksum 7C35ABE70DCB7BC2F141C301B16BC7AAD6A928E3F52984E34C74F4D52F645DB2 ====

Nat King Cole - 10 CD Set (2005)

CD8: Little Girl (1:05:29 | ~ 209 Mb & 150 Mb)

TRACKLIST
01. My Sleepy Head
02. Brahm's Lullaby
03. Nature Boy
04. Nursery Rhymes
05. Old MacDonald Had a Farm
06. The Three Trees
07. Laguna Mood
08. Now He Tells Me
09. That's a Natural Fact
10. Lament in Chords
11. Thoses Things Money Can't Buy
12. Love Nest
13. Dream a Little Dream of Me
14. Then I'll Be Tires of You
15. Little Girl
16. No Moon at All
17. I Feel So Smoochie
18. A Boy From Texas - A Girl From Tennessee
19. It's the Sentimental Thing to Do
20. I've Only Myself to Blame
21. The Geek
22. Confess
23. If I Had You

Exact Audio Copy V1.0 beta 3 from 29. August 2011

EAC extraction logfile from 20. April 2012, 2:35

Nat King Cole / 10 CD-Set CD08

Used drive : HL-DT-STDVDRAM GH10N Adapter: 1 ID: 1

Read mode : Secure
Utilize accurate stream : Yes
Defeat audio cache : Yes
Make use of C2 pointers : No

Read offset correction : 667
Overread into Lead-In and Lead-Out : No
Fill up missing offset samples with silence : Yes
Delete leading and trailing silent blocks : No
Null samples used in CRC calculations : Yes
Used interface : Native Win32 interface for Win NT & 2000

Used output format : User Defined Encoder
Selected bitrate : 1024 kBit/s
Quality : High
Add ID3 tag : Yes
Command line compressor : C:\Program Files\Exact Audio Copy New\Flac\flac.exe
Additional command line options : -V -5 -T "artist=%artist%" -T "title=%title%" -T "album=%albumtitle%" -T "tracknumber=%tracknr2%" -T "genre=%genre%" -5 %source%


TOC of the extracted CD

Track | Start | Length | Start sector | End sector
––––––––––––––––––––––––––––-
1 | 0:00.00 | 2:44.46 | 0 | 12345
2 | 2:44.46 | 3:16.55 | 12346 | 27100
3 | 6:01.26 | 2:38.73 | 27101 | 39023
4 | 8:40.24 | 2:47.70 | 39024 | 51618
5 | 11:28.19 | 2:42.19 | 51619 | 63787
6 | 14:10.38 | 2:40.19 | 63788 | 75806
7 | 16:50.57 | 2:57.26 | 75807 | 89107
8 | 19:48.08 | 2:34.71 | 89108 | 100728
9 | 22:23.04 | 2:36.68 | 100729 | 112496
10 | 24:59.72 | 2:58.43 | 112497 | 125889
11 | 27:58.40 | 2:48.53 | 125890 | 138542
12 | 30:47.18 | 2:35.23 | 138543 | 150190
13 | 33:22.41 | 2:50.66 | 150191 | 163006
14 | 36:13.32 | 3:10.39 | 163007 | 177295
15 | 39:23.71 | 2:25.35 | 177296 | 188205
16 | 41:49.31 | 2:58.05 | 188206 | 201560
17 | 44:47.36 | 2:39.59 | 201561 | 213544
18 | 47:27.20 | 2:40.73 | 213545 | 225617
19 | 50:08.18 | 3:07.05 | 225618 | 239647
20 | 53:15.23 | 3:02.22 | 239648 | 253319
21 | 56:17.45 | 3:13.24 | 253320 | 267818
22 | 59:30.69 | 2:57.67 | 267819 | 281160
23 | 62:28.61 | 3:00.34 | 281161 | 294694


Range status and errors

Selected range

Filename R:\EAC Rips\Nat King Cole - 10 CD Set\nkc08\Nat King Cole - 10 CD-Set CD08.wav

Peak level 100.0 %
Extraction speed 6.0 X
Range quality 99.9 %
Test CRC 2CCA4641
Copy CRC 2CCA4641
Copy OK

No errors occurred


AccurateRip summary

Track 1 accurately ripped (confidence 2) [D2D46DC4] (AR v1)
Track 2 accurately ripped (confidence 2) [E36BBE04] (AR v1)
Track 3 accurately ripped (confidence 2) [377FD50C] (AR v1)
Track 4 accurately ripped (confidence 2) [708B6022] (AR v1)
Track 5 accurately ripped (confidence 2) [2325F541] (AR v1)
Track 6 accurately ripped (confidence 2) [7F328ECB] (AR v1)
Track 7 accurately ripped (confidence 2) [0F0064BE] (AR v1)
Track 8 accurately ripped (confidence 2) [FD1CC7BB] (AR v1)
Track 9 accurately ripped (confidence 2) [4B8723B6] (AR v1)
Track 10 accurately ripped (confidence 2) [4C1DE629] (AR v1)
Track 11 accurately ripped (confidence 2) [803662C5] (AR v1)
Track 12 accurately ripped (confidence 2) [3C895F49] (AR v1)
Track 13 accurately ripped (confidence 2) [78414C95] (AR v1)
Track 14 accurately ripped (confidence 2) [51C4B3EF] (AR v1)
Track 15 accurately ripped (confidence 2) [A0A5D89C] (AR v1)
Track 16 accurately ripped (confidence 2) [4711BAA1] (AR v1)
Track 17 accurately ripped (confidence 2) [1BD2F8C4] (AR v1)
Track 18 accurately ripped (confidence 2) [9E4144FE] (AR v1)
Track 19 accurately ripped (confidence 2) [20C5522F] (AR v1)
Track 20 accurately ripped (confidence 2) [218E6F4F] (AR v1)
Track 21 accurately ripped (confidence 2) [8C645676] (AR v1)
Track 22 accurately ripped (confidence 2) [BD8C758B] (AR v1)
Track 23 accurately ripped (confidence 2) [1B58D749] (AR v1)

All tracks accurately ripped

End of status report

–– CUETools DB Plugin V2.1.3

[CTDB TOCID: 5tTiBAEwznDAksAvJ2byW.o2PAE-] found, Submit result: 5tTiBAEwznDAksAvJ2byW.o2PAE- has been confirmed
[c37588d7] (1/1) Accurately ripped


==== Log checksum 90B5523AF413E5EACECD206727B1D217F2599A5C2E7F57B94BE66627AE398109 ====

Nat King Cole - 10 CD Set (2005)

CD9: My Fair Lady (1:00:17 | ~ 199 Mb & 138 Mb)

TRACKLIST
01. Flo and Joe
02. If You Stub Your Toe One the Moon
03. Return Trip
04. A Woman Always Understands
05. Put 'em in a Box, Tie 'em With a Ribbon
06. I've Got a Way With Women
07. My Fair Lady
08. Lost April
09. Lost April
10. Lilette
11. Lulubelle
12. Leap Here
13. Portrait of Jennie
14. Don't Cry, Cry Baby
15. An Old Piano Plays the Blues
16. You Can't Lose a Broken Heart
17. My Baby Just Cares for Me
18. Can I Come in for a Second?
19. Baby Won't You Say You Love Me
20. Monday Again

Exact Audio Copy V1.0 beta 3 from 29. August 2011

EAC extraction logfile from 20. April 2012, 3:33

Nat King Cole / 10 CD-Set CD09

Used drive : HL-DT-STDVDRAM GH10N Adapter: 1 ID: 1

Read mode : Secure
Utilize accurate stream : Yes
Defeat audio cache : Yes
Make use of C2 pointers : No

Read offset correction : 667
Overread into Lead-In and Lead-Out : No
Fill up missing offset samples with silence : Yes
Delete leading and trailing silent blocks : No
Null samples used in CRC calculations : Yes
Used interface : Native Win32 interface for Win NT & 2000

Used output format : User Defined Encoder
Selected bitrate : 1024 kBit/s
Quality : High
Add ID3 tag : Yes
Command line compressor : C:\Program Files\Exact Audio Copy New\Flac\flac.exe
Additional command line options : -V -5 -T "artist=%artist%" -T "title=%title%" -T "album=%albumtitle%" -T "tracknumber=%tracknr2%" -T "genre=%genre%" -5 %source%


TOC of the extracted CD

Track | Start | Length | Start sector | End sector
––––––––––––––––––––––––––––-
1 | 0:00.00 | 2:43.14 | 0 | 12238
2 | 2:43.14 | 3:21.31 | 12239 | 27344
3 | 6:04.45 | 3:01.51 | 27345 | 40970
4 | 9:06.21 | 3:02.15 | 40971 | 54635
5 | 12:08.36 | 2:41.32 | 54636 | 66742
6 | 14:49.68 | 2:45.68 | 66743 | 79185
7 | 17:35.61 | 3:08.31 | 79186 | 93316
8 | 20:44.17 | 3:02.27 | 93317 | 106993
9 | 23:46.44 | 2:57.57 | 106994 | 120325
10 | 26:44.26 | 3:01.21 | 120326 | 133921
11 | 29:45.47 | 3:24.02 | 133922 | 149223
12 | 33:09.49 | 2:43.49 | 149224 | 161497
13 | 35:53.23 | 3:07.50 | 161498 | 175572
14 | 39:00.73 | 3:07.10 | 175573 | 189607
15 | 42:08.08 | 3:22.20 | 189608 | 204777
16 | 45:30.28 | 2:59.41 | 204778 | 218243
17 | 48:29.69 | 2:46.63 | 218244 | 230756
18 | 51:16.57 | 2:50.15 | 230757 | 243521
19 | 54:06.72 | 2:59.60 | 243522 | 257006
20 | 57:06.57 | 3:10.55 | 257007 | 271311


Range status and errors

Selected range

Filename R:\EAC Rips\Nat King Cole - 10 CD Set\nkc09\Nat King Cole - 10 CD-Set CD09.wav

Suspicious position 0:14:19

Peak level 100.0 %
Extraction speed 3.7 X
Range quality 99.9 %
Copy CRC 2B368A5B
Copy finished

There were errors


AccurateRip summary

Track 1 accurately ripped (confidence 2) [E5DAC3B1] (AR v1)
Track 2 accurately ripped (confidence 2) [91DE6039] (AR v1)
Track 3 accurately ripped (confidence 2) [B7774ACC] (AR v1)
Track 4 accurately ripped (confidence 2) [15EAF9FD] (AR v1)
Track 5 cannot be verified as accurate (confidence 4) [A3353E37], AccurateRip returned [15B4CF27] (AR v2)
Track 6 accurately ripped (confidence 2) [0100CC69] (AR v1)
Track 7 accurately ripped (confidence 2) [71CE308C] (AR v1)
Track 8 accurately ripped (confidence 2) [3801EA3C] (AR v1)
Track 9 accurately ripped (confidence 2) [312BC373] (AR v1)
Track 10 accurately ripped (confidence 2) [822A61E8] (AR v1)
Track 11 accurately ripped (confidence 2) [DB18344A] (AR v1)
Track 12 accurately ripped (confidence 2) [C52F779A] (AR v1)
Track 13 accurately ripped (confidence 2) [6FE710AC] (AR v1)
Track 14 accurately ripped (confidence 2) [8A843E64] (AR v1)
Track 15 accurately ripped (confidence 2) [95D010DA] (AR v1)
Track 16 accurately ripped (confidence 2) [6B706396] (AR v1)
Track 17 accurately ripped (confidence 2) [597AA79E] (AR v1)
Track 18 accurately ripped (confidence 2) [8007C8E5] (AR v1)
Track 19 accurately ripped (confidence 2) [836767DF] (AR v1)
Track 20 accurately ripped (confidence 2) [73DA065E] (AR v1)

19 track(s) accurately ripped
1 track(s) could not be verified as accurate

Some tracks could not be verified as accurate

End of status report

–– CUETools DB Plugin V2.1.3

[CTDB TOCID: 0OI9ZFqllEbLmLlAE.63dgj1sUA-] found, Submit result: 0OI9ZFqllEbLmLlAE.63dgj1sUA- has been uploaded
[f0798add] (1/1) Differs in 9 samples @13:57:38,14:18:24,14:18:64,14:19:14
You can use CUETools to repair this rip.


==== Log checksum FC24AE805EBA2F63E2BBA44CB6AD278DAB94764D8FEECE35C53082EF802CF9F7 ====

Nat King Cole - 10 CD Set (2005)

CD10: That's My Girl (1:05:42 | ~ 352 Mb & 156 Mb)

TRACKLIST
01. I'll Never Say 'Never Again' Again
02. I Almost Lost My Mind
03. The Greatest Inventor of Them All
04. Orange Colored Sky
05. Jam-Bo
06. Get to Getting'
07. Paint Yourself a Rainbow
08. Destination Moon
09. That's My Girl
10. Too Young
11. Red Sails in the Sunset
12. Wish I Were Somebody Else
13. Unforgettable
14. Pretend
15. It's Crazy
16. You Stepped Out of a Dream
17. Where Were You
18. Summer Is a Comin'In
19. Funny (Not Much)
20. There Goes My Heart
21. I Love You for Sentimental Reasons
22. Tenderly
23. This Can't Be Love
24. Almost Like Being in Love

Exact Audio Copy V1.0 beta 3 from 29. August 2011

EAC extraction logfile from 20. April 2012, 4:16

Nat King Cole / 10 CD-Set CD10

Used drive : HL-DT-STDVDRAM GH10N Adapter: 1 ID: 1

Read mode : Secure
Utilize accurate stream : Yes
Defeat audio cache : Yes
Make use of C2 pointers : No

Read offset correction : 667
Overread into Lead-In and Lead-Out : No
Fill up missing offset samples with silence : Yes
Delete leading and trailing silent blocks : No
Null samples used in CRC calculations : Yes
Used interface : Native Win32 interface for Win NT & 2000

Used output format : User Defined Encoder
Selected bitrate : 1024 kBit/s
Quality : High
Add ID3 tag : Yes
Command line compressor : C:\Program Files\Exact Audio Copy New\Flac\flac.exe
Additional command line options : -V -5 -T "artist=%artist%" -T "title=%title%" -T "album=%albumtitle%" -T "tracknumber=%tracknr2%" -T "genre=%genre%" -5 %source%


TOC of the extracted CD

Track | Start | Length | Start sector | End sector
––––––––––––––––––––––––––––-
1 | 0:00.00 | 2:48.19 | 0 | 12618
2 | 2:48.19 | 3:01.51 | 12619 | 26244
3 | 5:49.70 | 2:17.44 | 26245 | 36563
4 | 8:07.39 | 2:32.74 | 36564 | 48037
5 | 10:40.38 | 2:54.39 | 48038 | 61126
6 | 13:35.02 | 2:20.65 | 61127 | 71691
7 | 15:55.67 | 2:21.64 | 71692 | 82330
8 | 18:17.56 | 2:42.29 | 82331 | 94509
9 | 21:00.10 | 2:21.65 | 94510 | 105149
10 | 23:22.00 | 3:37.60 | 105150 | 121484
11 | 26:59.60 | 3:16.36 | 121485 | 136220
12 | 30:16.21 | 2:44.27 | 136221 | 148547
13 | 33:00.48 | 3:27.55 | 148548 | 164127
14 | 36:28.28 | 2:46.04 | 164128 | 176581
15 | 39:14.32 | 2:21.70 | 176582 | 187226
16 | 41:36.27 | 2:36.20 | 187227 | 198946
17 | 44:12.47 | 2:18.12 | 198947 | 209308
18 | 46:30.59 | 3:08.12 | 209309 | 223420
19 | 49:38.71 | 2:59.07 | 223421 | 236852
20 | 52:38.03 | 2:52.44 | 236853 | 249796
21 | 55:30.47 | 2:53.34 | 249797 | 262805
22 | 58:24.06 | 2:56.38 | 262806 | 276043
23 | 61:20.44 | 2:30.13 | 276044 | 287306
24 | 63:50.57 | 1:51.21 | 287307 | 295652


Range status and errors

Selected range

Filename R:\EAC Rips\Nat King Cole - 10 CD Set\nkc10\Nat King Cole - 10 CD-Set CD10.wav

Peak level 100.0 %
Extraction speed 6.0 X
Range quality 100.0 %
Test CRC F4C39570
Copy CRC F4C39570
Copy OK

No errors occurred


AccurateRip summary

Track 1 accurately ripped (confidence 2) [DBBA51D2] (AR v1)
Track 2 accurately ripped (confidence 2) [06BA9841] (AR v1)
Track 3 accurately ripped (confidence 2) [D5C6F49D] (AR v1)
Track 4 accurately ripped (confidence 2) [C886FA5F] (AR v1)
Track 5 accurately ripped (confidence 2) [15CC63E5] (AR v1)
Track 6 accurately ripped (confidence 2) [6387D96C] (AR v1)
Track 7 accurately ripped (confidence 2) [77BDB5E4] (AR v1)
Track 8 accurately ripped (confidence 2) [637854A3] (AR v1)
Track 9 accurately ripped (confidence 2) [3455C3BF] (AR v1)
Track 10 accurately ripped (confidence 2) [D760FD02] (AR v1)
Track 11 accurately ripped (confidence 2) [5A610A79] (AR v1)
Track 12 accurately ripped (confidence 2) [DB4535BA] (AR v1)
Track 13 accurately ripped (confidence 2) [C083989C] (AR v1)
Track 14 accurately ripped (confidence 2) [D9924003] (AR v1)
Track 15 accurately ripped (confidence 2) [F47069D3] (AR v1)
Track 16 accurately ripped (confidence 2) [0E592497] (AR v1)
Track 17 accurately ripped (confidence 2) [BB55EF89] (AR v1)
Track 18 accurately ripped (confidence 2) [370AA66A] (AR v1)
Track 19 accurately ripped (confidence 2) [BE4E589A] (AR v1)
Track 20 accurately ripped (confidence 2) [6F1463D4] (AR v1)
Track 21 accurately ripped (confidence 2) [A247BA67] (AR v1)
Track 22 accurately ripped (confidence 2) [19E5A0C9] (AR v1)
Track 23 accurately ripped (confidence 2) [6770E2BF] (AR v1)
Track 24 accurately ripped (confidence 2) [F296334C] (AR v1)

All tracks accurately ripped

End of status report

–– CUETools DB Plugin V2.1.3

[CTDB TOCID: zmzrTZcWhL_aMmREAiRTZMzuidc-] found, Submit result: zmzrTZcWhL_aMmREAiRTZMzuidc- has been confirmed
[04440bb4] (1/1) Accurately ripped


==== Log checksum 7FDAD200523842EA0CC56B2E886C7F8FC828021B05CD8B4597C3A9C44BF9657F ====