Subcategories

Natalie Clein - Bloch, Ligeti & Dallapiccola: Suites for Solo Cello (2017)

Posted By: shamanicus
Natalie Clein - Bloch, Ligeti & Dallapiccola: Suites for Solo Cello (2017)

Natalie Clein - Bloch, Ligeti & Dallapiccola: Suites for Solo Cello (2017)
EAC Rip | FLAC (tracks+.cue, log) | Covers, d.booklet | 242 mb | MP3 CBR 320kbps | RAR | 156 mb
Classical | Label: HYPERION

Natalie Clein, whose previous recording of the music of Ernest Bloch was described as ‘inspired’ by The Sunday Times, turns to his three suites for solo cello as part of a recital of works written in the aftermath of the Second World War. The sombre voice of the cello seems especially apposite in music of such deep seriousness, Ligeti’s short sonata providing an energetic and life-affirming finale.

Tracklist:

01. Bloch. Suite No1 For Solo Cello I. Prelude
02. II. Allegro
03. III. Canzona
04. IV. Allegro
05. Bloch. Suite No2 For Solo Cello I. Prelude
06. II. Allegro
07. III. Andante Tranquillo
08. IV. Allegro
09. Bloch. Suite No3 For Solo Cello I. Allegro Deciso
10. II. Andante
11. III. Allegro
12. IV. Andante
13. V. Allegro Giocoso
14. Dallapiccola. Ciaccona, Intermezzo & Adagio I. Ciaccona
15. II. Intermezzo
16. III. Adagio
17. Ligeti. Sonata For Solo Cello I. Dialogo
18. II. Capriccio

Natalie Clein - Bloch, Ligeti & Dallapiccola: Suites for Solo Cello (2017)


Exact Audio Copy V1.1 from 23. June 2015

EAC extraction logfile from 3. August 2017, 18:37

Natalie Clein / Bloch, Dallapiccola, Ligeti. Suites for Solo Cello

Used drive : HL-DT-STDVD-RAM GH22LP20 Adapter: 1 ID: 0

Read mode : Secure
Utilize accurate stream : Yes
Defeat audio cache : Yes
Make use of C2 pointers : No

Read offset correction : 102
Overread into Lead-In and Lead-Out : No
Fill up missing offset samples with silence : Yes
Delete leading and trailing silent blocks : No
Null samples used in CRC calculations : Yes
Used interface : Native Win32 interface for Win NT & 2000
Gap handling : Appended to previous track

Used output format : User Defined Encoder
Selected bitrate : 1024 kBit/s
Quality : High
Add ID3 tag : No
Command line compressor : C:\Program Files (x86)\Exact Audio Copy\Flac\flac.exe
Additional command line options : -8 -e -V -T "ARTIST=%artist%" -T "TITLE=%title%" -T "ALBUM=%albumtitle%" -T "DATE=%year%" -T "TRACKNUMBER=%tracknr%" -T "GENRE=%genre%" -T "PERFORMER=%albuminterpret%" -T "COMPOSER=%composer%" %haslyrics%–tag-from-file=LYRICS="%lyricsfile%"%haslyrics% -T "ALBUMARTIST=%albumartist%" -T "DISCNUMBER=%cdnumber%" -T "TOTALDISCS=%totalcds%" -T "TOTALTRACKS=%numtracks%" -T "COMMENT=%comment%" %source% -o %dest%


TOC of the extracted CD

Track | Start | Length | Start sector | End sector
––––––––––––––––––––––––––––-
1 | 0:00.00 | 2:34.71 | 0 | 11620
2 | 2:34.71 | 1:55.59 | 11621 | 20304
3 | 4:30.55 | 2:59.64 | 20305 | 33793
4 | 7:30.44 | 2:40.34 | 33794 | 45827
5 | 10:11.03 | 2:51.48 | 45828 | 58700
6 | 13:02.51 | 5:20.36 | 58701 | 82736
7 | 18:23.12 | 5:03.71 | 82737 | 105532
8 | 23:27.08 | 4:55.73 | 105533 | 127730
9 | 28:23.06 | 1:23.72 | 127731 | 134027
10 | 29:47.03 | 2:35.22 | 134028 | 145674
11 | 32:22.25 | 2:33.39 | 145675 | 157188
12 | 34:55.64 | 2:30.19 | 157189 | 168457
13 | 37:26.08 | 2:11.44 | 168458 | 178326
14 | 39:37.52 | 7:59.67 | 178327 | 214318
15 | 47:37.44 | 2:44.01 | 214319 | 226619
16 | 50:21.45 | 5:34.06 | 226620 | 251675
17 | 55:55.51 | 3:57.15 | 251676 | 269465
18 | 59:52.66 | 4:36.15 | 269466 | 290180


Track 1

Filename D:\Torrent\Natalie Clein - Bloch, Dallapiccola, Ligeti. Suites for Solo Cello (2017) [FLAC]\01 - Bloch. Suite No1 For Solo Cello I. Prelude.wav

Pre-gap length 0:00:02.00

Peak level 38.9 %
Extraction speed 1.4 X
Track quality 100.0 %
Test CRC CA2A0F46
Copy CRC CA2A0F46
Accurately ripped (confidence 1) [104A2D6D] (AR v2)
Copy OK

Track 2

Filename D:\Torrent\Natalie Clein - Bloch, Dallapiccola, Ligeti. Suites for Solo Cello (2017) [FLAC]\02 - II. Allegro.wav

Peak level 70.7 %
Extraction speed 1.4 X
Track quality 100.0 %
Test CRC 0234F298
Copy CRC 0234F298
Accurately ripped (confidence 1) [A5E27CB4] (AR v2)
Copy OK

Track 3

Filename D:\Torrent\Natalie Clein - Bloch, Dallapiccola, Ligeti. Suites for Solo Cello (2017) [FLAC]\03 - III. Canzona.wav

Peak level 39.1 %
Extraction speed 1.6 X
Track quality 100.0 %
Test CRC 7A188B99
Copy CRC 7A188B99
Accurately ripped (confidence 1) [34CC3DFE] (AR v2)
Copy OK

Track 4

Filename D:\Torrent\Natalie Clein - Bloch, Dallapiccola, Ligeti. Suites for Solo Cello (2017) [FLAC]\04 - IV. Allegro.wav

Peak level 88.8 %
Extraction speed 1.7 X
Track quality 100.0 %
Test CRC 01B10D58
Copy CRC 01B10D58
Accurately ripped (confidence 1) [F9A4CE83] (AR v2)
Copy OK

Track 5

Filename D:\Torrent\Natalie Clein - Bloch, Dallapiccola, Ligeti. Suites for Solo Cello (2017) [FLAC]\05 - Bloch. Suite No2 For Solo Cello I. Prelude.wav

Pre-gap length 0:00:08.00

Peak level 63.3 %
Extraction speed 1.5 X
Track quality 99.9 %
Test CRC 43C3CC69
Copy CRC 43C3CC69
Accurately ripped (confidence 1) [3C785308] (AR v2)
Copy OK

Track 6

Filename D:\Torrent\Natalie Clein - Bloch, Dallapiccola, Ligeti. Suites for Solo Cello (2017) [FLAC]\06 - II. Allegro.wav

Peak level 81.6 %
Extraction speed 2.1 X
Track quality 100.0 %
Test CRC BC4E91CA
Copy CRC BC4E91CA
Accurately ripped (confidence 1) [0ADB821B] (AR v2)
Copy OK

Track 7

Filename D:\Torrent\Natalie Clein - Bloch, Dallapiccola, Ligeti. Suites for Solo Cello (2017) [FLAC]\07 - III. Andante Tranquillo.wav

Peak level 42.8 %
Extraction speed 2.3 X
Track quality 100.0 %
Test CRC EDA53D09
Copy CRC EDA53D09
Accurately ripped (confidence 1) [26E3D9A5] (AR v2)
Copy OK

Track 8

Filename D:\Torrent\Natalie Clein - Bloch, Dallapiccola, Ligeti. Suites for Solo Cello (2017) [FLAC]\08 - IV. Allegro.wav

Peak level 80.3 %
Extraction speed 2.4 X
Track quality 100.0 %
Test CRC 7B61AB6F
Copy CRC 7B61AB6F
Accurately ripped (confidence 1) [B42C6ACC] (AR v2)
Copy OK

Track 9

Filename D:\Torrent\Natalie Clein - Bloch, Dallapiccola, Ligeti. Suites for Solo Cello (2017) [FLAC]\09 - Bloch. Suite No3 For Solo Cello I. Allegro Deciso.wav

Pre-gap length 0:00:09.12

Peak level 55.1 %
Extraction speed 1.5 X
Track quality 99.8 %
Test CRC C7FACB10
Copy CRC C7FACB10
Accurately ripped (confidence 1) [D962D073] (AR v2)
Copy OK

Track 10

Filename D:\Torrent\Natalie Clein - Bloch, Dallapiccola, Ligeti. Suites for Solo Cello (2017) [FLAC]\10 - II. Andante.wav

Peak level 27.4 %
Extraction speed 2.3 X
Track quality 100.0 %
Test CRC ECBC5C70
Copy CRC ECBC5C70
Accurately ripped (confidence 1) [AE26B30A] (AR v2)
Copy OK

Track 11

Filename D:\Torrent\Natalie Clein - Bloch, Dallapiccola, Ligeti. Suites for Solo Cello (2017) [FLAC]\11 - III. Allegro.wav

Peak level 80.0 %
Extraction speed 2.4 X
Track quality 100.0 %
Test CRC D822C092
Copy CRC D822C092
Accurately ripped (confidence 1) [11C22CC0] (AR v2)
Copy OK

Track 12

Filename D:\Torrent\Natalie Clein - Bloch, Dallapiccola, Ligeti. Suites for Solo Cello (2017) [FLAC]\12 - IV. Andante.wav

Peak level 40.4 %
Extraction speed 2.4 X
Track quality 100.0 %
Test CRC 08A8CD39
Copy CRC 08A8CD39
Accurately ripped (confidence 1) [260672A7] (AR v2)
Copy OK

Track 13

Filename D:\Torrent\Natalie Clein - Bloch, Dallapiccola, Ligeti. Suites for Solo Cello (2017) [FLAC]\13 - V. Allegro Giocoso.wav

Peak level 70.7 %
Extraction speed 2.3 X
Track quality 100.0 %
Test CRC A4FE6300
Copy CRC A4FE6300
Accurately ripped (confidence 1) [9092E1F8] (AR v2)
Copy OK

Track 14

Filename D:\Torrent\Natalie Clein - Bloch, Dallapiccola, Ligeti. Suites for Solo Cello (2017) [FLAC]\14 - Dallapiccola. Ciaccona, Intermezzo & Adagio I. Ciaccona.wav

Pre-gap length 0:00:06.41

Peak level 100.0 %
Extraction speed 3.0 X
Track quality 100.0 %
Test CRC 58B48064
Copy CRC 58B48064
Accurately ripped (confidence 1) [2FDFD73B] (AR v2)
Copy OK

Track 15

Filename D:\Torrent\Natalie Clein - Bloch, Dallapiccola, Ligeti. Suites for Solo Cello (2017) [FLAC]\15 - II. Intermezzo.wav

Peak level 91.3 %
Extraction speed 2.3 X
Track quality 99.9 %
Test CRC 70DFE37F
Copy CRC 70DFE37F
Accurately ripped (confidence 1) [68F05E18] (AR v2)
Copy OK

Track 16

Filename D:\Torrent\Natalie Clein - Bloch, Dallapiccola, Ligeti. Suites for Solo Cello (2017) [FLAC]\16 - III. Adagio.wav

Peak level 57.0 %
Extraction speed 3.1 X
Track quality 100.0 %
Test CRC DAA6A5BB
Copy CRC DAA6A5BB
Accurately ripped (confidence 1) [1FD77672] (AR v2)
Copy OK

Track 17

Filename D:\Torrent\Natalie Clein - Bloch, Dallapiccola, Ligeti. Suites for Solo Cello (2017) [FLAC]\17 - Ligeti. Sonata For Solo Cello I. Dialogo.wav

Pre-gap length 0:00:04.12

Peak level 56.2 %
Extraction speed 3.1 X
Track quality 100.0 %
Test CRC DAA3331B
Copy CRC DAA3331B
Accurately ripped (confidence 1) [A2C71186] (AR v2)
Copy OK

Track 18

Filename D:\Torrent\Natalie Clein - Bloch, Dallapiccola, Ligeti. Suites for Solo Cello (2017) [FLAC]\18 - II. Capriccio.wav

Peak level 97.9 %
Extraction speed 2.9 X
Track quality 99.9 %
Test CRC F8D5DE3B
Copy CRC F8D5DE3B
Accurately ripped (confidence 1) [89509661] (AR v2)
Copy OK


All tracks accurately ripped

No errors occurred

End of status report

–– CUETools DB Plugin V2.1.6

[CTDB TOCID: eNydWkLcFBYFx26D5xibXFF91Ss-] found
Submit result: eNydWkLcFBYFx26D5xibXFF91Ss- has been confirmed
Track | CTDB Status
1 | (9/9) Accurately ripped
2 | (9/9) Accurately ripped
3 | (9/9) Accurately ripped
4 | (9/9) Accurately ripped
5 | (9/9) Accurately ripped
6 | (9/9) Accurately ripped
7 | (9/9) Accurately ripped
8 | (9/9) Accurately ripped
9 | (9/9) Accurately ripped
10 | (9/9) Accurately ripped
11 | (9/9) Accurately ripped
12 | (9/9) Accurately ripped
13 | (9/9) Accurately ripped
14 | (9/9) Accurately ripped
15 | (9/9) Accurately ripped
16 | (9/9) Accurately ripped
17 | (9/9) Accurately ripped
18 | (9/9) Accurately ripped


==== Log checksum C939D0AD4D66890B8747149F578ABEBCF20878CC8211AE19B48D62057C5F52D8 ====


Thanks to the Original customer.