Subcategories

Nathan East - Reverence (2017) {Yamaha Entertainment Group}

Posted By: shamanicus
Nathan East - Reverence (2017) {Yamaha Entertainment Group}

Nathan East - Reverence (2017)
EAC Rip | FLAC with CUE and log | 394 mb | MP3 CBR 320kbps | RAR | 136 mb
Jazz, Smooth Jazz | Label: Yamaha Entertainment Group


GRAMMY-nominated bassist Nathan East‘s forthcoming album Reverence released on January, 2017 via Yamaha Entertainment Group. As a founding member of renowned contemporary jazz quartet Fourplay, Nathan East is one of the world’s most recorded session bassists. With over 2,000 album credits to his name and several GRAMMY-winning songs including “Get Lucky,” “Footloose” and “Change the World,” East has performed with artists including Daft Punk, Lionel Richie, Michael Jackson, Whitney Houston & Beyonce. He received a GRAMMY nomination for Best Contemporary Instrumental Album for his self-titled solo debut Nathan East.

Tracklist:
01. Love's Holiday
02. Lifecycle
03. Elevenate
04. Serpentine Fire
05. Feels Like Home
06. Higher Ground
07. The Mood I'm In
08. Over The Rainbow
09. Shadow
10. Pasan
11. Why Not This Sunday
12. Until We Meet Again

Exact Audio Copy V1.0 beta 3 from 29. August 2011

EAC extraction logfile from 26. December 2016, 14:57

Nathan East / Reverence

Used drive : HL-DT-STDVDRAM GH24NSC0 Adapter: 0 ID: 0

Read mode : Secure
Utilize accurate stream : Yes
Defeat audio cache : Yes
Make use of C2 pointers : No

Read offset correction : 6
Overread into Lead-In and Lead-Out : No
Fill up missing offset samples with silence : Yes
Delete leading and trailing silent blocks : No
Null samples used in CRC calculations : Yes
Used interface : Native Win32 interface for Win NT & 2000
Gap handling : Appended to previous track

Used output format : User Defined Encoder
Selected bitrate : 1024 kBit/s
Quality : High
Add ID3 tag : No
Command line compressor : C:\Program Files (x86)\Exact Audio Copy\Flac\flac.exe
Additional command line options : -8 -e -p -V -T "ARTIST=%artist%" -T "TITLE=%title%" -T "ALBUM=%albumtitle%" -T "DATE=%year%" -T "TRACKNUMBER=%tracknr%" -T "GENRE=%genre%" -T "PERFORMER=%albuminterpret%" -T "COMPOSER=%composer%" %haslyrics%–tag-from-file=LYRICS="%lyricsfile%"%haslyrics% -T "ALBUMARTIST=%albumartist%" -T "DISCNUMBER=%cdnumber%" -T "TOTALDISCS=%totalcds%" -T "TOTALTRACKS=%numtracks%" -T "COMMENT=%comment%" %source% -o %dest%


TOC of the extracted CD

Track | Start | Length | Start sector | End sector
––––––––––––––––––––––––––––-
1 | 0:00.00 | 6:01.40 | 0 | 27114
2 | 6:01.40 | 5:54.40 | 27115 | 53704
3 | 11:56.05 | 5:25.26 | 53705 | 78105
4 | 17:21.31 | 5:13.47 | 78106 | 101627
5 | 22:35.03 | 5:37.39 | 101628 | 126941
6 | 28:12.42 | 5:06.73 | 126942 | 149964
7 | 33:19.40 | 4:21.67 | 149965 | 169606
8 | 37:41.32 | 3:11.08 | 169607 | 183939
9 | 40:52.40 | 5:45.42 | 183940 | 209856
10 | 46:38.07 | 3:34.41 | 209857 | 225947
11 | 50:12.48 | 5:44.56 | 225948 | 251803
12 | 55:57.29 | 1:22.68 | 251804 | 258021


Track 1

Filename C:\EAC Rips\Nathan East - Reverence (2017) [FLAC]\01 - Love's Holiday.wav

Pre-gap length 0:00:02.00

Peak level 98.8 %
Extraction speed 1.1 X
Track quality 99.9 %
Test CRC B6905207
Copy CRC B6905207
Track not present in AccurateRip database
Copy OK

Track 2

Filename C:\EAC Rips\Nathan East - Reverence (2017) [FLAC]\02 - Lifecycle.wav

Pre-gap length 0:00:00.88

Peak level 98.8 %
Extraction speed 1.2 X
Track quality 99.9 %
Test CRC EDAFD373
Copy CRC EDAFD373
Track not present in AccurateRip database
Copy OK

Track 3

Filename C:\EAC Rips\Nathan East - Reverence (2017) [FLAC]\03 - Elevenate.wav

Pre-gap length 0:00:01.64

Peak level 98.8 %
Extraction speed 1.3 X
Track quality 99.9 %
Test CRC 0F18585D
Copy CRC 0F18585D
Track not present in AccurateRip database
Copy OK

Track 4

Filename C:\EAC Rips\Nathan East - Reverence (2017) [FLAC]\04 - Serpentine Fire.wav

Pre-gap length 0:00:02.70

Peak level 98.8 %
Extraction speed 1.6 X
Track quality 100.0 %
Test CRC 7965970D
Copy CRC 7965970D
Track not present in AccurateRip database
Copy OK

Track 5

Filename C:\EAC Rips\Nathan East - Reverence (2017) [FLAC]\05 - Feels Like Home.wav

Pre-gap length 0:00:02.22

Peak level 100.0 %
Extraction speed 1.7 X
Track quality 100.0 %
Test CRC 60A1A265
Copy CRC 60A1A265
Track not present in AccurateRip database
Copy OK

Track 6

Filename C:\EAC Rips\Nathan East - Reverence (2017) [FLAC]\06 - Higher Ground.wav

Pre-gap length 0:00:01.38

Peak level 98.8 %
Extraction speed 1.8 X
Track quality 100.0 %
Test CRC C235D886
Copy CRC C235D886
Track not present in AccurateRip database
Copy OK

Track 7

Filename C:\EAC Rips\Nathan East - Reverence (2017) [FLAC]\07 - The Mood I'm In.wav

Pre-gap length 0:00:00.46

Peak level 98.8 %
Extraction speed 1.9 X
Track quality 100.0 %
Test CRC E1830CCA
Copy CRC E1830CCA
Track not present in AccurateRip database
Copy OK

Track 8

Filename C:\EAC Rips\Nathan East - Reverence (2017) [FLAC]\08 - Over The Rainbow.wav

Peak level 98.8 %
Extraction speed 1.8 X
Track quality 100.0 %
Test CRC 00D598DD
Copy CRC 00D598DD
Track not present in AccurateRip database
Copy OK

Track 9

Filename C:\EAC Rips\Nathan East - Reverence (2017) [FLAC]\09 - Shadow.wav

Pre-gap length 0:00:00.22

Peak level 98.8 %
Extraction speed 2.1 X
Track quality 100.0 %
Test CRC 3E122D91
Copy CRC 3E122D91
Track not present in AccurateRip database
Copy OK

Track 10

Filename C:\EAC Rips\Nathan East - Reverence (2017) [FLAC]\10 - Pasan.wav

Pre-gap length 0:00:01.37

Peak level 98.8 %
Extraction speed 2.0 X
Track quality 100.0 %
Test CRC 3DF966D8
Copy CRC 3DF966D8
Track not present in AccurateRip database
Copy OK

Track 11

Filename C:\EAC Rips\Nathan East - Reverence (2017) [FLAC]\11 - Why Not This Sunday.wav

Pre-gap length 0:00:01.09

Peak level 98.8 %
Extraction speed 2.2 X
Track quality 100.0 %
Test CRC 7AE59239
Copy CRC 7AE59239
Track not present in AccurateRip database
Copy OK

Track 12

Filename C:\EAC Rips\Nathan East - Reverence (2017) [FLAC]\12 - Until We Meet Again.wav

Pre-gap length 0:00:02.68

Peak level 98.1 %
Extraction speed 1.7 X
Track quality 100.0 %
Test CRC FB7A4504
Copy CRC FB7A4504
Track not present in AccurateRip database
Copy OK


None of the tracks are present in the AccurateRip database

No errors occurred

End of status report

==== Log checksum FF8CAFF89A22B1E7F76DB299C1CB0631546BF9005D484BA0D6213240A2388ADE ====