Subcategories

Phil Woods - The New Phil Woods Album (1975) {2015 Japan Jazz Collection 1000 Columbia-RCA Series SICJ 96}

Posted By: ruskaval
Phil Woods - The New Phil Woods Album (1975) {2015 Japan Jazz Collection 1000 Columbia-RCA Series SICJ 96}

Phil Woods - The New Phil Woods Album (1975) {2015 Japan Jazz Collection 1000 Columbia-RCA Series SICJ 96}
EAC rip (secure mode) | FLAC (tracks)+CUE+LOG -> 257 Mb | MP3 @320 -> 96 Mb
Full Artwork @ 600 dpi (png) -> 271 Mb | 5% repair rar
© 1975, 2015 RCA / Sony Music Japan | SICJ 96
Jazz / Bop / Hard Bop / Modern Big Band / Saxophone

Reissue with the latest remastering. Comes with liner notes. Phil Woods really outdoes himself here – offering the world a whole new side of his talents, and stepping forth at the head of a larger ensemble than usual! The album features Woods' core quartet augmented by larger strings and horns – all in shadings and tones that are incredibly expressive, and filled with warm colors and rich tones that never get bogged down in hoke or too-easy inflections!

Most impressively of all, Phil arranged and conducted the whole set – save for one number – and all this while playing in that sharp-edged and soulful mode that graced his best 70s work, a sound that's filled with new intentions and imagination we never would have expected from his already-great records of the early years! Titles include "The Sun Suite", "At Seventeen", "Gee", "Mimi", "Sacre Coeur", and "Body & Soul".
Phil Woods - The New Phil Woods Album (1975) {2015 Japan Jazz Collection 1000 Columbia-RCA Series SICJ 96}


Personnel:
Phil Woods, alto and soprano saxophones
Mike Melillo, keyboards
Steve Gilmore, bass
Bill Goodwin, drums
Ralph MacDonald, percussion
Sam Brown, guitar
Charles McCracken, cello

String and brass players include:
Gene Orloff, Barry Finclair, Max Pollikoff, Harry Lookofsky, Paul Gershman, Leo Kahn, Al Brown (strings)
Jon Faddis, Randy Brecker, Joe Shepley, Burt Collins, Wayne Andre, Tom Malone, Jim Buffington, Tony Price (brass)
Orchestra assembled by Emile Charlap

All selections orchestrated, arranged and conducted by Phil Woods except Gee orchestrated, arranged and conducted by Mike Melillo.

tracklist:
01 - The Sun Suite (from The Sun Sweet)
02 - At Seventeen
03 - Gee
04 - B Side D (from Change Partners)
05 - Chelsea Bridge - Johnny Hodges
06 - Body and Soul
07 - Mimi
08 - Sacre Coeur

Exact Audio Copy V1.1 from 23. June 2015

EAC extraction logfile from 7. June 2016, 13:11

Phil Woods / The New Phil Woods Album

Used drive : HL-DT-STDVDRAM GP50NW41 Adapter: 1 ID: 0

Read mode : Secure
Utilize accurate stream : Yes
Defeat audio cache : Yes
Make use of C2 pointers : No

Read offset correction : 6
Overread into Lead-In and Lead-Out : No
Fill up missing offset samples with silence : Yes
Delete leading and trailing silent blocks : No
Null samples used in CRC calculations : Yes
Used interface : Native Win32 interface for Win NT & 2000
Gap handling : Appended to previous track

Used output format : User Defined Encoder
Selected bitrate : 1024 kBit/s
Quality : High
Add ID3 tag : No
Command line compressor : C:\Program Files (x86)\FLAC Frontend\tools\flac.exe
Additional command line options : -8 -V -T "ARTIST=%artist%" -T "TITLE=%title%" -T "ALBUM=%albumtitle%" -T "DATE=%year%" -T "TRACKNUMBER=%tracknr%" -T "TOTALTRACKS=%numtracks%" -T "GENRE=%genre%" -T "ALBUMARTIST=%albumartist%" -T "ALBUM ARTIST=%albumartist%" -T "COMMENT=EAC Secure Mode, Test & Copy, AccurateRip, FLAC -8" %source%


TOC of the extracted CD

Track | Start | Length | Start sector | End sector
––––––––––––––––––––––––––––-
1 | 0:00.00 | 11:26.05 | 0 | 51454
2 | 11:26.05 | 4:00.27 | 51455 | 69481
3 | 15:26.32 | 4:21.18 | 69482 | 89074
4 | 19:47.50 | 0:44.10 | 89075 | 92384
5 | 20:31.60 | 6:39.45 | 92385 | 122354
6 | 27:11.30 | 3:54.12 | 122355 | 139916
7 | 31:05.42 | 3:25.25 | 139917 | 155316
8 | 34:30.67 | 5:55.13 | 155317 | 181954


Track 1

Filename D:\_EAC\Phil Woods - The New Phil Woods Album (1975) [FLAC] {SICJ 96}\01 - The Sun Suite (from The Sun Sweet).wav

Pre-gap length 0:00:02.00

Peak level 98.8 %
Extraction speed 1.4 X
Track quality 100.0 %
Test CRC 16AB7A93
Copy CRC 16AB7A93
Accurately ripped (confidence 1) [44439469] (AR v2)
Copy OK

Track 2

Filename D:\_EAC\Phil Woods - The New Phil Woods Album (1975) [FLAC] {SICJ 96}\02 - At Seventeen.wav

Pre-gap length 0:00:03.42

Peak level 98.8 %
Extraction speed 1.3 X
Track quality 99.9 %
Test CRC A3296905
Copy CRC A3296905
Accurately ripped (confidence 1) [C3855C11] (AR v2)
Copy OK

Track 3

Filename D:\_EAC\Phil Woods - The New Phil Woods Album (1975) [FLAC] {SICJ 96}\03 - Gee.wav

Pre-gap length 0:00:03.41

Peak level 98.8 %
Extraction speed 1.4 X
Track quality 99.9 %
Test CRC D04A88F1
Copy CRC D04A88F1
Accurately ripped (confidence 1) [769D585B] (AR v2)
Copy OK

Track 4

Filename D:\_EAC\Phil Woods - The New Phil Woods Album (1975) [FLAC] {SICJ 96}\04 - B Side D (from Change Partners).wav

Pre-gap length 0:00:03.42

Peak level 98.8 %
Extraction speed 0.7 X
Track quality 99.7 %
Test CRC 1FB7D7AC
Copy CRC 1FB7D7AC
Accurately ripped (confidence 1) [A1DA98AB] (AR v2)
Copy OK

Track 5

Filename D:\_EAC\Phil Woods - The New Phil Woods Album (1975) [FLAC] {SICJ 96}\05 - Chelsea Bridge - Johnny Hodges.wav

Pre-gap length 0:00:03.42

Peak level 98.8 %
Extraction speed 1.8 X
Track quality 100.0 %
Test CRC 80EB3DD8
Copy CRC 80EB3DD8
Accurately ripped (confidence 1) [008CEAF6] (AR v2)
Copy OK

Track 6

Filename D:\_EAC\Phil Woods - The New Phil Woods Album (1975) [FLAC] {SICJ 96}\06 - Body and Soul.wav

Pre-gap length 0:00:03.42

Peak level 98.8 %
Extraction speed 1.8 X
Track quality 100.0 %
Test CRC CCA621F1
Copy CRC CCA621F1
Accurately ripped (confidence 1) [5F1F4842] (AR v2)
Copy OK

Track 7

Filename D:\_EAC\Phil Woods - The New Phil Woods Album (1975) [FLAC] {SICJ 96}\07 - Mimi.wav

Pre-gap length 0:00:03.40

Peak level 98.8 %
Extraction speed 1.8 X
Track quality 100.0 %
Test CRC 1F06B466
Copy CRC 1F06B466
Accurately ripped (confidence 1) [BE993CD1] (AR v2)
Copy OK

Track 8

Filename D:\_EAC\Phil Woods - The New Phil Woods Album (1975) [FLAC] {SICJ 96}\08 - Sacre Coeur.wav

Pre-gap length 0:00:03.40

Peak level 98.8 %
Extraction speed 2.1 X
Track quality 100.0 %
Test CRC 05F1E056
Copy CRC 05F1E056
Accurately ripped (confidence 1) [8800A04E] (AR v2)
Copy OK


All tracks accurately ripped

No errors occurred

End of status report

==== Log checksum FF2A5CE9066616059793EF97F32AEE0FA6ADFF029599C6F79A8978FA9100FE45 ====


Phil Woods - The New Phil Woods Album (1975) {2015 Japan Jazz Collection 1000 Columbia-RCA Series SICJ 96}

Phil Woods - The New Phil Woods Album (1975) {2015 Japan Jazz Collection 1000 Columbia-RCA Series SICJ 96}


see more Japan Jazz Collection 1000 Columbia-RCA Series…


===