Subcategories

Nikolaus Harnoncourt, Arnold Schoenberg Choir & Concentus Musicus Wien - Haydn: Die Jahreszeiten - Les Saisons (2016)

Posted By: delpotro
Nikolaus Harnoncourt, Arnold Schoenberg Choir & Concentus Musicus Wien - Haydn: Die Jahreszeiten - Les Saisons (2016)

Nikolaus Harnoncourt, Genia Kühmeier, Werner Güra, Arnold Schoenberg Choir & Concentus Musicus Wien - Haydn: Die Jahreszeiten - Les Saisons (2016)
EAC Rip | FLAC (tracks+log+.cue) - 587 Mb | MP3 CBR 320 kbps - 318 Mb | Scans included | 02:16:43
Classical, Opera | Label: Les indispensables de Diapason

Un double CD Diapason d'or à retrouver dès aujourd'hui en kiosque avec le numéro de février de Diapason.

« Cher public, mes forces physiques me contraignent à annuler mes projets futurs. De grands souvenirs me reviennent : une relation incroyablement profonde s'est nouée entre nous sur l'estrade et vous dans la salle - nous sommes devenus une heureuse communauté de découvreurs. »

Apprendre, le jour de son quatre-vingt-sixième anniversaire, que Nikolaus Harnoncourt devait à nouveau renoncer à un concert, et qu'il prenait cette fois le parti de se retirer définitivement, a laissé d'innombrables mélomanes orphelins. Un hommage s'imposait dans la série des Indispensables. L'ultime chef d'œuvre de Haydn (qui plus est un cycle des saisons dans lequel se reflètent traditionnellement les âges de l'homme) allait presque de soi. Et pourtant, s'il faut être honnête, c'est bien avant ce triste 6 décembre que nous avons pu convaincre Sony et DHM de leur emprunter Les Saisons enregistrées sur le vif en 2007, avec le Concentus Musicus et le Arnold Schoenberg Chor. Il s'agissait d'associer un Indispensable au thème de la Folle journée. Quel plus riche miroir à la nature que cette fresque où Haydn peint non seulement ses lumières, ses beautés, sa grandeur, mais aussi le travail de la terre au fil des mois ? Selon ses propres termes : « Dans [La Création], les personnages étaient des anges, dans [Les Saisons] ce sont des paysans.» Une fresque optimiste ? Ecoutons Harnoncourt : « Optimiste, oui, mais de façon ambiguë. Au soir de sa vie, Haydn résume tout son art dans une oeuvre-somme. Il voyait le début de l'ère industrielle, l'emploi de la machine à vapeur, il sentait qu'un contact individuel et intime de l'homme à la nature, thème central des Saisons, allait se perdre. C'est une ode à un monde qui touche à sa fin, une ode heureuse sur un arrière-plan pessimiste.»

LYRISME, PALETTE, CONTRASTES

Dans la même interview, nous lui demandions (figure obligée du questionnaire de Proust) son principal défaut : « Zorn. Comment traduisez vous ça ? C'est plus fort que la colère. Disons, l'explosion des sentiments, cette violence-là. » Certains vous diront qu'ils l'entendent encore dans l'orage d'été, les accents du début (toujours ingénieux, Haydn ouvre le cycle sur les bourrasques cruelles de l'hiver qui s'épuisent sous les premières lueurs du printemps), l'éblouissement du lever de soleil, les cors en chasse. Nous entendons surtout - comme Jean-Luc Macia dans le bel article qu'il couronnait d'un Diapason d'or - la contrepartie positive à cette violence, l'énergie viscérale qui porte et qui partage, la générosité qui s'épanche autant dans le lyrisme et la palette (Dieu, quelles couleurs !), que dans l'ampleur de certains contrastes. Leur vigueur est une signature, soit, mais comparez cette lecture avec celles de Gardiner (Archiv) et Jacobs (HM), absoluments plendides l'une et l'autre, et vous verrez qu'elle n'est pas moins unique par le balancement inégal et joueur qu'Harnoncourt installe dans les ternaires du printemps, ou la torpeur accablante et douce de l'été à midi.

Harnoncourt refuse aux Saisons l'image d'Epinal et la contemplation confortable ? Haydn également, si l'on en croit un témoin de la première (1801), dans un commentaire qui vaut au mot près pour la vision du chef autrichien : « L'auditeur est enchanté par une mélodie, et aussitôt le calme est bousculé par une rivière furieuse qui sort de son lit - tous les instruments s'unissent en un formidable effet. Un instant, il est charmé par une expression sans fard, et le suivant il admire l'exubérance d'accords rapides et clairs. Du début à la fin, l'esprit est emporté sans le vouloir du plus touchant au plus inquiétant, du plus naïf au plus artificiel, du beau au sublime. »
Tracklist:
Disc 1 (01:09:07)
1. Ouverture: Largo. Vivace & Récitatif - "Seht, Wie Der Strenge Winter Flieht" (Simon, Lukas, Hanne) (06:06)
2. Choeur: Allegretto - "Komm, Holder Lenz" (choeur) (03:53)
3. Récitatif - "Vom Widder Strahlet Jetzt" (Simon) (00:30)
4. Aria: Allegretto - "Schon Eilet Froh Der Ackermann" (Simon) (03:51)
5. Récitatif - "Der Landmann Hat Sein Werk Vollbracht" (Lukas) (00:33)
6. Prière - Trio Avec Choeur: Poco Adagio - "Sei Uns Nun Gnädig, Milder Himmel" (Lukas, Choeur, Simon, Hanne) (05:42)
7. Récitatif - "Erhört Ist Unser Flehn" (Hanne) (01:08)
8. Chant de Joie: Andante - "O Wie Lieblich Ist Der Anblick" (Hanne, Lukas, Choeur, Simon) (10:47)
9. Ouverture & Récitatif: Adagio - "In Grauem Schleier Rückt Heran" (Lukas, Simon) (03:26)
10. Aria: Allegretto - "Der Munt're Hirt Versammelt Nun" (Simon) - Récitatif "Die Morgenröte Bricht Hervor" (Hanne) (03:16)
11. Trio Avec Choeur: Largo. Allegro - "Sie Steigt Herauf, Die Sonne" (Hanne, Lukas, Simon, Choeur) (04:40)
12. Récitatif - "Nun Regt Und Bewegt Sich Alles Umher" (Simon, Lukas) (01:48)
13. Cavatine: Largo - "Dem Druck Erliegt Die Natur" (Lukas) (03:58)
14. Récitatif: Poco Adagio - "Willkommen Jetzt, O Dunkler Hain" (Hanne) (03:47)
15. Aria: Adagio. Allegro Assai - "Welche Labung Für Die Sinne" (Hanne) (04:53)
16. Récitatif - "O Seht! Es Steiget In Der Schwülen Luft" (Simon, Lukas, Hanne) (02:22)
17. Choeur: Allegro Assai - "Ach! Das Ungewitter Naht" (choeur) (04:07)
18. Trio Avec Choeur: Allegretto - "Die Düstren Wolken Trennen Sich" (Lukas, Hanne, Simon, Choeur) (04:20)

Disc 2 (01:07:19)
1. Ouverture: Moderato & Récitatif - "Was Durch Seine Blüte" (Hanne, Lukas, Simon) (02:20)
2. Trio Avec Choeur: Allegretto - "So Iohnet Die Natur Den Fleiss" (Simon, Hanne, Lukas, Choeur) (06:39)
3. Récitatif - "Seht, Wie Zum Haselbusche Dort" (Hanne, Simon, Lukas) (01:00)
4. Duo: Allegretto - "Ihr Schönen Aus Der Stadt, Kommet Her" (Lukas, Hanne) (08:29)
5. Récitatif - "Nun Zeiget Das Entblösste Feld" (Simon) (00:50)
6. Aria: Allegro - "Seht Auf Die Breiten Wiesen Hin!" (Simon) (03:14)
7. Récitatif: Allegro - "Hier Treibt Ein Dichter Kreis" (Lukas) (00:43)
8. Choeur Des Paysans Et Des Chasseurs: Vivace - "Hört! Hört Das Laute Getön!" (choeur) (04:17)
9. Récitatif - "Am Rebenstocke Blinket Jetzt" (Hanne, Simon, Lukas) (00:57)
10. Choeur: Allegro Molto - "Juhe! Juve! Der Wein Ist Da" (choeur) (06:23)
11. Ouverture: Adagio Ma Non Troppo & Récitatif - "Nun Senket Sich Das Blasse Jahr" (Simon, Hanne) (05:22)
12. Cavatine: Largo - "Licht Und Leben Sind Geschwächet" (Hanne) (02:02)
13. Récitatif - "Gefesselt Steht Der Breite See " (Lukas) (01:54)
14. Aria: Presto - "Hier Steht Der Wand'rer Nun" (Lukas) (03:47)
15. Récitatif - "So Wie Er Naht" (Lukas, Hanne, Simon) (01:07)
16. Lied Avec Choeur: Allegro - "Knurre, Schnurre, Knurre" (choeur, Hanne) (02:51)
17. Récitatif - "Abgesponnen Ist Der Flachs" (Lukas) (00:21)
18. Lied Avec Choeur: Moderato - "Ein Mädchen, Das Auf Ehre Hielt" (Hanne, Choeur) (03:19)
19. Récitatif - "Vom Dürren Oste Dringt" (Simon) (00:38)
20. Aria: Largo - "Erblicke Hier, Betörter Mensch" (Simon) (04:52)
21. Trio Avec Double Choeur: Allegro Moderato - "Dann Briquet Der Grosse Morgen An" (Simon, Hanne, Lukas, Choeur) (06:14)

Exact Audio Copy V1.3 from 2. September 2016

EAC extraction logfile from 9. November 2019, 15:21

Nikolaus Harnoncourt / Haydn: Die Jahreszeiten (The Seasons)

Used drive : SlimtypeeBAU108 6 L Adapter: 1 ID: 1

Read mode : Secure
Utilize accurate stream : Yes
Defeat audio cache : Yes
Make use of C2 pointers : No

Read offset correction : 6
Overread into Lead-In and Lead-Out : No
Fill up missing offset samples with silence : Yes
Delete leading and trailing silent blocks : No
Null samples used in CRC calculations : Yes
Used interface : Native Win32 interface for Win NT & 2000
Gap handling : Appended to previous track

Used output format : User Defined Encoder
Selected bitrate : 896 kBit/s
Quality : High
Add ID3 tag : No
Command line compressor : C:\Program Files (x86)\Exact Audio Copy\FLAC\FLAC.EXE
Additional command line options : -6 -V -T "ARTIST=%artist%" -T "TITLE=%title%" -T "ALBUM=%albumtitle%" -T "DATE=%year%" -T "TRACKNUMBER=%tracknr%" -T "GENRE=%genre%" -T "COMMENT=%comment%" -T "BAND=%albuminterpret%" -T "ALBUMARTIST=%albuminterpret%" -T "COMPOSER=%composer%" %haslyrics%–tag-from-file=LYRICS="%lyricsfile%"%haslyrics% -T "DISCNUMBER=%cdnumber%" -T "TOTALDISCS=%totalcds%" -T "TOTALTRACKS=%numtracks%" %hascover%–picture="%coverfile%"%hascover% %source% -o %dest%


TOC of the extracted CD

Track | Start | Length | Start sector | End sector
––––––––––––––––––––––––––––-
1 | 0:00.00 | 6:06.13 | 0 | 27462
2 | 6:06.13 | 3:53.04 | 27463 | 44941
3 | 9:59.17 | 0:30.10 | 44942 | 47201
4 | 10:29.27 | 3:51.25 | 47202 | 64551
5 | 14:20.52 | 0:33.19 | 64552 | 67045
6 | 14:53.71 | 5:42.63 | 67046 | 92758
7 | 20:36.59 | 1:08.32 | 92759 | 97890
8 | 21:45.16 | 10:47.12 | 97891 | 146427
9 | 32:32.28 | 3:26.05 | 146428 | 161882
10 | 35:58.33 | 3:16.49 | 161883 | 176631
11 | 39:15.07 | 4:40.20 | 176632 | 197651
12 | 43:55.27 | 1:48.10 | 197652 | 205761
13 | 45:43.37 | 3:58.16 | 205762 | 223627
14 | 49:41.53 | 3:47.07 | 223628 | 240659
15 | 53:28.60 | 4:53.29 | 240660 | 262663
16 | 58:22.14 | 2:20.39 | 262664 | 273202
17 | 60:42.53 | 4:09.31 | 273203 | 291908
18 | 64:52.09 | 4:20.69 | 291909 | 311477


Track 1

Filename X:\_orp\DIAP078\CD1\01. Die Jahreszeiten (The Seasons), Hob. XXI-3 Der Frühling- 1. Einleitung- Largo. Vivace & Rezitativ - ''Seht, wie der strenge Winter flieht''.wav

Pre-gap length 0:00:02.00

Peak level 76.7 %
Extraction speed 2.5 X
Track quality 99.9 %
Test CRC 9F94BFE2
Copy CRC 9F94BFE2
Copy OK

Track 2

Filename X:\_orp\DIAP078\CD1\02. Die Jahreszeiten (The Seasons), Hob. XXI-3 Der Frühling- 2. Chor- Allegretto - ''Komm, holder Lenz''.wav

Peak level 66.0 %
Extraction speed 2.5 X
Track quality 99.9 %
Test CRC 81A10AF9
Copy CRC 81A10AF9
Copy OK

Track 3

Filename X:\_orp\DIAP078\CD1\03. Die Jahreszeiten (The Seasons), Hob. XXI-3 Der Frühling- 3. Rezitativ - ''Vom Widder strahlet jetzt''.wav

Peak level 28.6 %
Extraction speed 1.6 X
Track quality 100.0 %
Test CRC 3CA88978
Copy CRC 3CA88978
Copy OK

Track 4

Filename X:\_orp\DIAP078\CD1\04. Die Jahreszeiten (The Seasons), Hob. XXI-3 Der Frühling- 4. Aria- Allegretto - ''Schon eilet froh der Ackermann''.wav

Peak level 32.4 %
Extraction speed 3.2 X
Track quality 100.0 %
Test CRC 87850CB9
Copy CRC 87850CB9
Copy OK

Track 5

Filename X:\_orp\DIAP078\CD1\05. Die Jahreszeiten (The Seasons), Hob. XXI-3 Der Frühling- 5. Rezitativ - ''Der Landmann hat sein Werk vollbracht''.wav

Peak level 16.0 %
Extraction speed 1.8 X
Track quality 100.0 %
Test CRC 4EA16F95
Copy CRC 4EA16F95
Copy OK

Track 6

Filename X:\_orp\DIAP078\CD1\06. Die Jahreszeiten (The Seasons), Hob. XXI-3 Der Frühling- 6. Terzett mit Chor- poco Adagio - ''Sei uns nun gnädig, milder Himmel''.wav

Peak level 85.3 %
Extraction speed 3.6 X
Track quality 100.0 %
Test CRC A74B7A52
Copy CRC A74B7A52
Copy OK

Track 7

Filename X:\_orp\DIAP078\CD1\07. Die Jahreszeiten (The Seasons), Hob. XXI-3 Der Frühling- 7. Rezitativ - ''Erhört ist unser Flehn''.wav

Peak level 26.2 %
Extraction speed 2.7 X
Track quality 100.0 %
Test CRC 769E8B16
Copy CRC 769E8B16
Copy OK

Track 8

Filename X:\_orp\DIAP078\CD1\08. Die Jahreszeiten (The Seasons), Hob. XXI-3 Der Frühling- 8. Freudenlied- Andante - ''O wie lieblich ist der Anblick''.wav

Peak level 98.8 %
Extraction speed 4.2 X
Track quality 100.0 %
Test CRC 4486C0E3
Copy CRC 4486C0E3
Copy OK

Track 9

Filename X:\_orp\DIAP078\CD1\09. Die Jahreszeiten (The Seasons), Hob. XXI-3 Der Sommer- 9. Einleitung & Rezitativ- Adagio - ''In grauem Schleier rückt heran''.wav

Peak level 21.9 %
Extraction speed 4.1 X
Track quality 100.0 %
Test CRC 1EC028DF
Copy CRC 1EC028DF
Copy OK

Track 10

Filename X:\_orp\DIAP078\CD1\10. Die Jahreszeiten (The Seasons), Hob. XXI-3 Der Sommer- 10. Aria- Allegretto - ''Der munt're Hirt versammelt nun'' & Rezitativ ''Die Morgenröte bricht hervor''.wav

Peak level 26.0 %
Extraction speed 4.2 X
Track quality 100.0 %
Test CRC 30754F8B
Copy CRC 30754F8B
Copy OK

Track 11

Filename X:\_orp\DIAP078\CD1\11. Die Jahreszeiten (The Seasons), Hob. XXI-3 Der Sommer- 11. Terzett mit Chor- Largo. Allegro - ''Sie steigt herauf, die Sonne''.wav

Peak level 98.8 %
Extraction speed 4.5 X
Track quality 100.0 %
Test CRC 802883EA
Copy CRC 802883EA
Copy OK

Track 12

Filename X:\_orp\DIAP078\CD1\12. Die Jahreszeiten (The Seasons), Hob. XXI-3 Der Sommer- 12. Rezitativ - ''Nun regt und bewegt sich alles umher''.wav

Peak level 30.2 %
Extraction speed 3.9 X
Track quality 100.0 %
Test CRC 078130A0
Copy CRC 078130A0
Copy OK

Track 13

Filename X:\_orp\DIAP078\CD1\13. Die Jahreszeiten (The Seasons), Hob. XXI-3 Der Sommer- 13. Cavatina- Largo - ''Dem Druck erliegt die Natur''.wav

Peak level 20.8 %
Extraction speed 4.7 X
Track quality 100.0 %
Test CRC BE80A470
Copy CRC BE80A470
Copy OK

Track 14

Filename X:\_orp\DIAP078\CD1\14. Die Jahreszeiten (The Seasons), Hob. XXI-3 Der Sommer- 14. Rezitativ- poco Adagio - ''Willkommen jetzt, o dunkler Hain''.wav

Peak level 21.6 %
Extraction speed 4.0 X
Track quality 99.9 %
Test CRC CA173273
Copy CRC CA173273
Copy OK

Track 15

Filename X:\_orp\DIAP078\CD1\15. Die Jahreszeiten (The Seasons), Hob. XXI-3 Der Sommer- 15. Aria- Adagio. Allegro assai - ''Welche Labung für die Sinne''.wav

Peak level 33.6 %
Extraction speed 4.9 X
Track quality 100.0 %
Test CRC 17F372DC
Copy CRC 17F372DC
Copy OK

Track 16

Filename X:\_orp\DIAP078\CD1\16. Die Jahreszeiten (The Seasons), Hob. XXI-3 Der Sommer- 16. Rezitativ - ''O seht! Es steiget in der schwülen Luft''.wav

Peak level 27.3 %
Extraction speed 4.5 X
Track quality 100.0 %
Test CRC 886CB4B2
Copy CRC 886CB4B2
Copy OK

Track 17

Filename X:\_orp\DIAP078\CD1\17. Die Jahreszeiten (The Seasons), Hob. XXI-3 Der Sommer- 17. Chor- Allegro assai - ''Ach! das Ungewitter naht''.wav

Peak level 98.8 %
Extraction speed 5.2 X
Track quality 100.0 %
Test CRC 6B998762
Copy CRC 6B998762
Copy OK

Track 18

Filename X:\_orp\DIAP078\CD1\18. Die Jahreszeiten (The Seasons), Hob. XXI-3 Der Sommer- 18. Terzett mit Chor- Allegretto - ''Die düstren Wolken trennen sich''.wav

Peak level 62.3 %
Extraction speed 4.5 X
Track quality 99.9 %
Test CRC BD5D18E2
Copy CRC BD5D18E2
Copy OK

No errors occurred

End of status report

–– CUETools DB Plugin V2.1.6

[CTDB TOCID: BiEGB2Y_b1.hoej1h6oPxWYXx3o-] found
Submit result: BiEGB2Y_b1.hoej1h6oPxWYXx3o- has been confirmed
Track | CTDB Status
1 | (135/135) Accurately ripped
2 | (135/135) Accurately ripped
3 | (135/135) Accurately ripped
4 | (135/135) Accurately ripped
5 | (135/135) Accurately ripped
6 | (135/135) Accurately ripped
7 | (135/135) Accurately ripped
8 | (134/135) Accurately ripped
9 | (135/135) Accurately ripped
10 | (135/135) Accurately ripped
11 | (135/135) Accurately ripped
12 | (135/135) Accurately ripped
13 | (135/135) Accurately ripped
14 | (135/135) Accurately ripped
15 | (135/135) Accurately ripped
16 | (135/135) Accurately ripped
17 | (135/135) Accurately ripped
18 | (129/135) Accurately ripped


==== Log checksum 833BFF09865B1A4AB3C1426E385C5EEB041BC88F5D32576C7AD9808F6C5BC98C ====

Exact Audio Copy V1.3 from 2. September 2016

EAC extraction logfile from 9. November 2019, 16:19

Nikolaus Harnoncourt / Haydn: Die Jahreszeiten (The Seasons)

Used drive : SlimtypeeBAU108 6 L Adapter: 1 ID: 1

Read mode : Secure
Utilize accurate stream : Yes
Defeat audio cache : Yes
Make use of C2 pointers : No

Read offset correction : 6
Overread into Lead-In and Lead-Out : No
Fill up missing offset samples with silence : Yes
Delete leading and trailing silent blocks : No
Null samples used in CRC calculations : Yes
Used interface : Native Win32 interface for Win NT & 2000
Gap handling : Appended to previous track

Used output format : User Defined Encoder
Selected bitrate : 896 kBit/s
Quality : High
Add ID3 tag : No
Command line compressor : C:\Program Files (x86)\Exact Audio Copy\FLAC\FLAC.EXE
Additional command line options : -6 -V -T "ARTIST=%artist%" -T "TITLE=%title%" -T "ALBUM=%albumtitle%" -T "DATE=%year%" -T "TRACKNUMBER=%tracknr%" -T "GENRE=%genre%" -T "COMMENT=%comment%" -T "BAND=%albuminterpret%" -T "ALBUMARTIST=%albuminterpret%" -T "COMPOSER=%composer%" %haslyrics%–tag-from-file=LYRICS="%lyricsfile%"%haslyrics% -T "DISCNUMBER=%cdnumber%" -T "TOTALDISCS=%totalcds%" -T "TOTALTRACKS=%numtracks%" %hascover%–picture="%coverfile%"%hascover% %source% -o %dest%


TOC of the extracted CD

Track | Start | Length | Start sector | End sector
––––––––––––––––––––––––––––-
1 | 0:00.00 | 2:20.55 | 0 | 10554
2 | 2:20.55 | 6:39.42 | 10555 | 40521
3 | 9:00.22 | 1:00.35 | 40522 | 45056
4 | 10:00.57 | 8:29.45 | 45057 | 83276
5 | 18:30.27 | 0:50.45 | 83277 | 87071
6 | 19:20.72 | 3:14.44 | 87072 | 101665
7 | 22:35.41 | 0:43.22 | 101666 | 104912
8 | 23:18.63 | 4:17.56 | 104913 | 124243
9 | 27:36.44 | 0:57.32 | 124244 | 128550
10 | 28:34.01 | 6:23.07 | 128551 | 157282
11 | 34:57.08 | 5:22.66 | 157283 | 181498
12 | 40:19.74 | 2:02.71 | 181499 | 190719
13 | 42:22.70 | 1:54.14 | 190720 | 199283
14 | 44:17.09 | 3:47.23 | 199284 | 216331
15 | 48:04.32 | 1:07.71 | 216332 | 221427
16 | 49:12.28 | 2:51.23 | 221428 | 234275
17 | 52:03.51 | 0:21.74 | 234276 | 235924
18 | 52:25.50 | 3:19.21 | 235925 | 250870
19 | 55:44.71 | 0:38.58 | 250871 | 253778
20 | 56:23.54 | 4:52.44 | 253779 | 275722
21 | 61:16.23 | 6:14.13 | 275723 | 303785


Track 1

Filename X:\_orp\DIAP078\CD2\01. Die Jahreszeiten (The Seasons), Hob. XXI-3 Der Herbst- 19. Einleitung- Moderato & Rezitativ - ''Was durch seine Blüte''.wav

Pre-gap length 0:00:02.00

Peak level 27.9 %
Extraction speed 1.8 X
Track quality 99.9 %
Test CRC 3FCBCE5B
Copy CRC 3FCBCE5B
Copy OK

Track 2

Filename X:\_orp\DIAP078\CD2\02. Die Jahreszeiten (The Seasons), Hob. XXI-3 Der Herbst- 20. Terzett mit Chor- Allegretto - ''So lohnet die Natur den Fleiß''.wav

Peak level 98.8 %
Extraction speed 2.9 X
Track quality 100.0 %
Test CRC 301512AA
Copy CRC 301512AA
Copy OK

Track 3

Filename X:\_orp\DIAP078\CD2\03. Die Jahreszeiten (The Seasons), Hob. XXI-3 Der Herbst- 21. Rezitativ - ''Seht, wie zum Haselbusche dort''.wav

Pre-gap length 0:00:00.01

Peak level 16.9 %
Extraction speed 2.1 X
Track quality 100.0 %
Test CRC A987E70D
Copy CRC A987E70D
Copy OK

Track 4

Filename X:\_orp\DIAP078\CD2\04. Die Jahreszeiten (The Seasons), Hob. XXI-3 Der Herbst- 22. Duett- Allegretto - ''Ihr Schönen aus der Stadt, kommt her''.wav

Pre-gap length 0:00:00.01

Peak level 36.8 %
Extraction speed 3.2 X
Track quality 99.9 %
Test CRC 86E1E8A8
Copy CRC 86E1E8A8
Copy OK

Track 5

Filename X:\_orp\DIAP078\CD2\05. Die Jahreszeiten (The Seasons), Hob. XXI-3 Der Herbst- 23. Rezitativ - ''Nun zeiget das entblößte Feld''.wav

Peak level 17.8 %
Extraction speed 2.3 X
Track quality 100.0 %
Test CRC 7DEBB59B
Copy CRC 7DEBB59B
Copy OK

Track 6

Filename X:\_orp\DIAP078\CD2\06. Die Jahreszeiten (The Seasons), Hob. XXI-3 Der Herbst- 24. Aria- Allegro - ''Seht auf die breiten Wiesen hin!''.wav

Pre-gap length 0:00:00.01

Peak level 64.9 %
Extraction speed 3.5 X
Track quality 100.0 %
Test CRC 1C42C20A
Copy CRC 1C42C20A
Copy OK

Track 7

Filename X:\_orp\DIAP078\CD2\07. Die Jahreszeiten (The Seasons), Hob. XXI-3 Der Herbst- 25. Rezitativ- Allegro - ''Hier treibt ein dichter Kreis''.wav

Pre-gap length 0:00:00.01

Peak level 31.1 %
Extraction speed 2.3 X
Track quality 100.0 %
Test CRC 0CA15880
Copy CRC 0CA15880
Copy OK

Track 8

Filename X:\_orp\DIAP078\CD2\08. Die Jahreszeiten (The Seasons), Hob. XXI-3 Der Herbst- 26. Chor der Landleute und Jäger- Vivace - ''Hört! hört das laute Getön!''.wav

Pre-gap length 0:00:00.01

Peak level 98.8 %
Extraction speed 3.8 X
Track quality 100.0 %
Test CRC 59F58482
Copy CRC 59F58482
Copy OK

Track 9

Filename X:\_orp\DIAP078\CD2\09. Die Jahreszeiten (The Seasons), Hob. XXI-3 Der Herbst- 27. Rezitativ - ''Am Rebenstocke blinket jetzt''.wav

Pre-gap length 0:00:00.01

Peak level 25.0 %
Extraction speed 1.8 X
Track quality 99.8 %
Test CRC 42CFB88B
Copy CRC 42CFB88B
Copy OK

Track 10

Filename X:\_orp\DIAP078\CD2\10. Die Jahreszeiten (The Seasons), Hob. XXI-3 Der Herbst- 28. Chor- Allegro molto - ''Juhe! Juhe! Der Wein ist da''.wav

Pre-gap length 0:00:00.01

Peak level 98.8 %
Extraction speed 3.9 X
Track quality 99.9 %
Test CRC 0AD4F357
Copy CRC 0AD4F357
Copy OK

Track 11

Filename X:\_orp\DIAP078\CD2\11. Die Jahreszeiten (The Seasons), Hob. XXI-3 Der Winter- 29. Einleitung- Adagio ma non troppo & Rezitativ - ''Nun senket sich das blasse Jahr''.wav

Pre-gap length 0:00:00.01

Peak level 28.3 %
Extraction speed 4.4 X
Track quality 100.0 %
Test CRC 6E8AB87B
Copy CRC 6E8AB87B
Copy OK

Track 12

Filename X:\_orp\DIAP078\CD2\12. Die Jahreszeiten (The Seasons), Hob. XXI-3 Der Winter- 30. Cavatina- Largo - ''Licht und Leben sind geschwächet''.wav

Peak level 19.1 %
Extraction speed 3.9 X
Track quality 100.0 %
Test CRC 811724C5
Copy CRC 811724C5
Copy OK

Track 13

Filename X:\_orp\DIAP078\CD2\13. Die Jahreszeiten (The Seasons), Hob. XXI-3 Der Winter- 31. Rezitativ - ''Gefesselt steht der breite See''.wav

Pre-gap length 0:00:00.01

Peak level 16.1 %
Extraction speed 2.9 X
Track quality 99.9 %
Test CRC 2182C53F
Copy CRC 2182C53F
Copy OK

Track 14

Filename X:\_orp\DIAP078\CD2\14. Die Jahreszeiten (The Seasons), Hob. XXI-3 Der Winter- 32. Aria- Presto - ''Hier steht der Wand'rer nun''.wav

Pre-gap length 0:00:00.01

Peak level 47.8 %
Extraction speed 4.6 X
Track quality 100.0 %
Test CRC A42E1C6E
Copy CRC A42E1C6E
Copy OK

Track 15

Filename X:\_orp\DIAP078\CD2\15. Die Jahreszeiten (The Seasons), Hob. XXI-3 Der Winter- 33. Rezitativ - ''So wie er naht''.wav

Pre-gap length 0:00:00.01

Peak level 24.4 %
Extraction speed 3.5 X
Track quality 100.0 %
Test CRC 6EA0F692
Copy CRC 6EA0F692
Copy OK

Track 16

Filename X:\_orp\DIAP078\CD2\16. Die Jahreszeiten (The Seasons), Hob. XXI-3 Der Winter- 34. Lied mit Chor- Allegro - ''Knurre, schnurre, knurre''.wav

Pre-gap length 0:00:00.01

Peak level 75.0 %
Extraction speed 3.7 X
Track quality 99.9 %
Test CRC DE51A5BB
Copy CRC DE51A5BB
Copy OK

Track 17

Filename X:\_orp\DIAP078\CD2\17. Die Jahreszeiten (The Seasons), Hob. XXI-3 Der Winter- 35. Rezitativ - ''Abgesponnen ist der Flachs''.wav

Pre-gap length 0:00:00.01

Peak level 20.6 %
Extraction speed 2.0 X
Track quality 100.0 %
Test CRC 851E4951
Copy CRC 851E4951
Copy OK

Track 18

Filename X:\_orp\DIAP078\CD2\18. Die Jahreszeiten (The Seasons), Hob. XXI-3 Der Winter- 36. Lied mit Chor- Moderato - ''Ein Mädchen, das auf Ehre hielt''.wav

Pre-gap length 0:00:00.01

Peak level 84.2 %
Extraction speed 4.8 X
Track quality 100.0 %
Test CRC BB97367E
Copy CRC BB97367E
Copy OK

Track 19

Filename X:\_orp\DIAP078\CD2\19. Die Jahreszeiten (The Seasons), Hob. XXI-3 Der Winter- 37. Rezitativ - ''Vom dürren Oste dringt''.wav

Pre-gap length 0:00:00.01

Peak level 15.8 %
Extraction speed 2.9 X
Track quality 100.0 %
Test CRC 181430E4
Copy CRC 181430E4
Copy OK

Track 20

Filename X:\_orp\DIAP078\CD2\20. Die Jahreszeiten (The Seasons), Hob. XXI-3 Der Winter- 38. Aria- Largo - ''Erblicke hier, betörter Mensch''.wav

Pre-gap length 0:00:00.01

Peak level 42.0 %
Extraction speed 5.1 X
Track quality 100.0 %
Test CRC 715EEC36
Copy CRC 715EEC36
Copy OK

Track 21

Filename X:\_orp\DIAP078\CD2\21. Die Jahreszeiten (The Seasons), Hob. XXI-3 Der Winter- 39. Terzett mit Doppelchor- Allegro Moderato - ''Dann bricht der große Morgen an''.wav

Pre-gap length 0:00:00.01

Peak level 98.8 %
Extraction speed 3.1 X
Track quality 99.9 %
Test CRC 4BB61E7E
Copy CRC 4BB61E7E
Copy OK

No errors occurred

End of status report

–– CUETools DB Plugin V2.1.6

[CTDB TOCID: avtAfcl0MpSH4f9s.tW9YChPVso-] found
Submit result: avtAfcl0MpSH4f9s.tW9YChPVso- has been confirmed
Track | CTDB Status
1 | (116/116) Accurately ripped
2 | (116/116) Accurately ripped
3 | (116/116) Accurately ripped
4 | (116/116) Accurately ripped
5 | (116/116) Accurately ripped
6 | (116/116) Accurately ripped
7 | (116/116) Accurately ripped
8 | (116/116) Accurately ripped
9 | (116/116) Accurately ripped
10 | (116/116) Accurately ripped
11 | (116/116) Accurately ripped
12 | (116/116) Accurately ripped
13 | (116/116) Accurately ripped
14 | (116/116) Accurately ripped
15 | (116/116) Accurately ripped
16 | (116/116) Accurately ripped
17 | (116/116) Accurately ripped
18 | (116/116) Accurately ripped
19 | (116/116) Accurately ripped
20 | (116/116) Accurately ripped
21 | (116/116) Accurately ripped


==== Log checksum 99A22AC6BF5FED59417242842816C9B1A2D9E4324DF0CADE7C45C7037EB1676E ====


Thanks to the Original ripper !