Subcategories

Nikos Skalkottas – 36 Greek Dances/The Return of Ulysses

Posted By: d'Avignon
Nikos Skalkottas – 36 Greek Dances/The Return of Ulysses

Nikos Skalkottas – 36 Greek Dances/The Return of Ulysses (2003)
Classical/early 20th Century | FLAC lossless | cuesheets+logs | covers+booklet | 75m48s/71m32s | 584mb
Label: BIS | cat. no. BIS-CD-1333/34


Included on this 2cd are the popular 36 Greek Dances, which make for pleasant listening; and The Return of Ulysses, a composition based on the Schönberg/Webern tradition, and as such one of the pieces that established Skalkottas’ name as an important Greek modernist.

Tracks:

Disc 1

36 Greek Dances, AK 11

1. Series I: I. Tsamikos, "An Eagle" 00:02:16
2. Series I: II. Critikos 00:01:35
3. Series I: III. Ipirotikos 00:01:49
4. Series I: IV. Peloponnissiakos 00:04:41
5. Series I: V. Critikos, "I enjoy no other dance" 00:01:52
6. Series I: VI. Kleftikos 00:02:55
7. Series I: VII. Sifneikos 00:01:01
8. Series I: VIII. Kalamatianos 00:01:51
9. Series I: IX. "Dance of Zalongo" 00:02:21
10.Series I: X. Macedonikos 00:01:55
11.Series I: XI. "Oh friends, who threw this apple" 00:01:57
12.Series I: XII. Thessalikos 00:01:28
13.Series II: I. Syrtos 00:02:20
14.Series II: II. Sifneikos, "At Saint Marcella" 00:02:29
15.Series II: III. Critikos, "Early at dawn I will rise" 00:06:16
16.Series II: IV. Nissiotikos, "A woman from Mylopotamos" 00:05:30
17.Series II: V. Vlachikos 00:03:00
18.Series II: VI. "Black Sash" 00:02:38
19.Series II: VII. Kathistos 00:04:56
20.Series II: VIII. Chiotikos 00:02:51
21.Series II: IX. Tsamikos 00:02:27
22.Series II: X. Epitrapezios (Critikos) 00:03:48
23.Series II: XI. Macedonikos 00:06:34
24.Series II: XII. Peloponnissiakos, "The brave Lyngos" 00:03:49

Disc 2

36 Greek Dances, AK 11

1. Series III: I. Hostianos 00:02:12
2. Series III: II. Ipirotikos 00:05:13
3. Series III: III. Kleftikos 00:02:10
4. Series III: IV. "Mariori" 00:05:51
5. Series III: V. "Down there, at the villages of Valtos" 00:02:22
6. Series III: VI. Macedonikos 00:01:22
7. Series III: VII. Chiotikos, "Down there at the seashore" 00:01:21
8. Series III: VIII. Kleftikos 00:02:59
9. Series III: IX. "Kiss under a bitter - orange tree" 00:02:41
10.Series III: X. Arcadikos 00:03:54
11.Series III: XI. Messolongitikos 00:02:01
12.Series III: XII. Mazochtos, "I will become a swallow" 00:02:04

The Return of Ulysses, AK 5
13.The Return of Ulysses, AK 5 00:28:23

36 Greek Dances (alternative versions)

14.Series II: VIII. Chiotikos 00:02:46
15.Series II: IX. Tsamikos 00:02:30
16.Series III: VI. Macedonikos 00:01:22

Performers:

BBC Symphony Orchestra – Nikos Christodoulou

Exact Audio Copy V1.0 beta 2 from 29. April 2011

EAC extraction logfile from 6. August 2011, 22:17

Nikos Skalkottas / Skalkottas - 36 Greek Dances; The Return of Ulysses CD1

Used drive : TSSTcorpCDDVDW SH-S222L Adapter: 0 ID: 0

Read mode : Secure
Utilize accurate stream : Yes
Defeat audio cache : No
Make use of C2 pointers : Yes

Read offset correction : 6
Overread into Lead-In and Lead-Out : No
Fill up missing offset samples with silence : Yes
Delete leading and trailing silent blocks : No
Null samples used in CRC calculations : No
Used interface : Native Win32 interface for Win NT & 2000

Used output format : User Defined Encoder
Selected bitrate : 768 kBit/s
Quality : High
Add ID3 tag : No
Command line compressor : C:\Program Files\Exact Audio Copy\FLAC\FLAC.EXE
Additional command line options : -6 -V -T "ARTIST=%artist%" -T "TITLE=%title%" -T "ALBUM=%albumtitle%" -T "DATE=%year%" -T "TRACKNUMBER=%tracknr%" -T "GENRE=%genre%" -T "COMMENT=%comment%" -T "BAND=%albuminterpret%" -T "COMPOSER=%composer%" %haslyrics%–ta


TOC of the extracted CD

Track | Start | Length | Start sector | End sector
––––––––––––––––––––––––––––-
1 | 0:00.00 | 2:23.17 | 0 | 10741
2 | 2:23.17 | 1:38.50 | 10742 | 18141
3 | 4:01.67 | 1:53.28 | 18142 | 26644
4 | 5:55.20 | 4:44.00 | 26645 | 47944
5 | 10:39.20 | 1:55.32 | 47945 | 56601
6 | 12:34.52 | 2:59.58 | 56602 | 70084
7 | 15:34.35 | 1:04.12 | 70085 | 74896
8 | 16:38.47 | 1:55.55 | 74897 | 83576
9 | 18:34.27 | 2:26.33 | 83577 | 94559
10 | 21:00.60 | 1:58.07 | 94560 | 103416
11 | 22:58.67 | 1:59.30 | 103417 | 112371
12 | 24:58.22 | 1:41.68 | 112372 | 120014
13 | 26:40.15 | 2:22.32 | 120015 | 130696
14 | 29:02.47 | 3:34.03 | 130697 | 146749
15 | 32:36.50 | 6:22.10 | 146750 | 175409
16 | 38:58.60 | 5:34.37 | 175410 | 200496
17 | 44:33.22 | 3:05.53 | 200497 | 214424
18 | 47:39.00 | 2:42.42 | 214425 | 226616
19 | 50:21.42 | 5:00.55 | 226617 | 249171
20 | 55:22.22 | 2:54.40 | 249172 | 262261
21 | 58:16.62 | 2:31.43 | 262262 | 273629
22 | 60:48.30 | 3:54.72 | 273630 | 291251
23 | 64:43.27 | 6:35.48 | 291252 | 320924
24 | 71:19.00 | 4:29.37 | 320925 | 341136


Range status and errors

Selected range

Filename D:\skalkotta\1\Nikos Skalkottas - Skalkottas - 36 Greek Dances; The Return of Ulysses CD1.wav

Peak level 100.0 %
Extraction speed 23.0 X
Range quality 100.0 %
Copy CRC 971721CF
Copy OK

No errors occurred


AccurateRip summary

Track 1 not present in database
Track 2 not present in database
Track 3 not present in database
Track 4 not present in database
Track 5 not present in database
Track 6 not present in database
Track 7 not present in database
Track 8 not present in database
Track 9 not present in database
Track 10 not present in database
Track 11 not present in database
Track 12 not present in database
Track 13 not present in database
Track 14 not present in database
Track 15 not present in database
Track 16 not present in database
Track 17 not present in database
Track 18 not present in database
Track 19 not present in database
Track 20 not present in database
Track 21 not present in database
Track 22 not present in database
Track 23 not present in database
Track 24 not present in database

None of the tracks are present in the AccurateRip database

End of status report

==== Log checksum 493F4C0064A432803BB105DC43FB45AE10D231631AB9AC0A3B851EF9CB70563D ====


Exact Audio Copy V1.0 beta 2 from 29. April 2011

EAC extraction logfile from 6. August 2011, 22:27

Nikos Skalkottas / 36 Greek Dances, The Return of Ulysses cd2

Used drive : TSSTcorpCDDVDW SH-S222L Adapter: 0 ID: 0

Read mode : Secure
Utilize accurate stream : Yes
Defeat audio cache : No
Make use of C2 pointers : Yes

Read offset correction : 6
Overread into Lead-In and Lead-Out : No
Fill up missing offset samples with silence : Yes
Delete leading and trailing silent blocks : No
Null samples used in CRC calculations : No
Used interface : Native Win32 interface for Win NT & 2000

Used output format : User Defined Encoder
Selected bitrate : 768 kBit/s
Quality : High
Add ID3 tag : No
Command line compressor : C:\Program Files\Exact Audio Copy\FLAC\FLAC.EXE
Additional command line options : -6 -V -T "ARTIST=%artist%" -T "TITLE=%title%" -T "ALBUM=%albumtitle%" -T "DATE=%year%" -T "TRACKNUMBER=%tracknr%" -T "GENRE=%genre%" -T "COMMENT=%comment%" -T "BAND=%albuminterpret%" -T "COMPOSER=%composer%" %haslyrics%–ta


TOC of the extracted CD

Track | Start | Length | Start sector | End sector
––––––––––––––––––––––––––––-
1 | 0:00.00 | 2:18.35 | 0 | 10384
2 | 2:18.35 | 5:14.72 | 10385 | 34006
3 | 7:33.32 | 2:17.63 | 34007 | 44344
4 | 9:51.20 | 5:58.62 | 44345 | 71256
5 | 15:50.07 | 2:28.58 | 71257 | 82414
6 | 18:18.65 | 1:27.55 | 82415 | 88994
7 | 19:46.45 | 1:27.37 | 88995 | 95556
8 | 21:14.07 | 3:05.08 | 95557 | 109439
9 | 24:19.15 | 2:46.65 | 109440 | 121954
10 | 27:06.05 | 3:58.32 | 121955 | 139836
11 | 31:04.37 | 2:02.35 | 139837 | 149021
12 | 33:06.72 | 2:19.08 | 149022 | 159454
13 | 35:26.05 | 28:49.27 | 159455 | 289156
14 | 64:15.32 | 2:49.28 | 289157 | 301859
15 | 67:04.60 | 2:32.57 | 301860 | 313316
16 | 69:37.42 | 1:54.35 | 313317 | 321901


Range status and errors

Selected range

Filename D:\skalkotta\2\Nikos Skalkottas - 36 Greek Dances, The Return of Ulysses cd2.wav

Peak level 100.0 %
Extraction speed 22.8 X
Range quality 100.0 %
Copy CRC 8C4E76A4
Copy OK

No errors occurred


AccurateRip summary

Track 1 accurately ripped (confidence 1) [D6F8A041] (AR v1)
Track 2 accurately ripped (confidence 1) [DC65EB0A] (AR v1)
Track 3 accurately ripped (confidence 1) [1C7530A6] (AR v1)
Track 4 accurately ripped (confidence 1) [5451FD2E] (AR v1)
Track 5 accurately ripped (confidence 1) [94796788] (AR v1)
Track 6 accurately ripped (confidence 1) [5C1048F8] (AR v1)
Track 7 accurately ripped (confidence 1) [AD92F424] (AR v1)
Track 8 accurately ripped (confidence 1) [2B54FBDC] (AR v1)
Track 9 accurately ripped (confidence 1) [64D51F41] (AR v1)
Track 10 accurately ripped (confidence 1) [2586340E] (AR v1)
Track 11 cannot be verified as accurate (confidence 1) [C650E7FF], AccurateRip returned [6CEA3BD5] (AR v2)
Track 12 cannot be verified as accurate (confidence 1) [317046CF], AccurateRip returned [18DAFF50] (AR v2)
Track 13 cannot be verified as accurate (confidence 1) [6A15D7A2], AccurateRip returned [2433FDFE] (AR v2)
Track 14 accurately ripped (confidence 1) [734DB870] (AR v1)
Track 15 accurately ripped (confidence 1) [B31F92F7] (AR v1)
Track 16 accurately ripped (confidence 1) [2F85DC92] (AR v1)

13 track(s) accurately ripped
3 track(s) could not be verified as accurate

Some tracks could not be verified as accurate

End of status report

==== Log checksum DCA537C280F45E602F80CF635489146DA11EDF31413520456259D37F071E0E67 ====