Subcategories

Nisennenmondai - #N/A (2015)

Posted By: delpotro
Nisennenmondai - #N/A (2015)

Nisennenmondai - #N/A (2015)
EAC Rip | FLAC (tracks+log+.cue) - 267 Mb | Scans - 173 Mb | 00:48:59
Krautrock, Noise Rock, Experimental, Instrumental | Label: On-U Sound Records

The new studio album #N/A (literally, Nisennenmondai with Adrian Sherwood) sees the cult Japanese trio filtering their epic motorik jams through the mixing desk of the legendary dub producer.

Nisennenmondai are three girls from Tokyo, Sayaka Himeno (drums), Yuri Zaikawa (bass) and Masako Takada (guitar), who have been playing instrumental music together since 1999. From their initial beginnings as a noisy no wave band openly referencing influences such as Sonic Youth, DNA and This Heat, they have since honed and streamlined their sound into a more minimalistic pulse with an emphasis on the hypnotic possibilities of repetition, creating a sound that can be likened to ‘organic techno’.

Recording their new album with Sherwood has resulted in them sounding bigger than ever before, with a greater emphasis on small rhythmic details and subtle dub touches, reminiscent in places of the classic Basic Channel sound.

This international edition of the album includes 2 bonus ‘live dub mixes’. Whilst Adrian showed considerable restraint in his production job on the studio album, on a subsequent live date at Tokyo’s Unit club he was recorded deploying a wild array of FX tricks, dropping in splashes of cavernous reverb and space echo delay to the performance of two pieces from the band’s previous album N’.

Mastered by Rashad Becker at Dubplates & Mastering in Berlin.
Tracklist:
1 #1
2 #2
3 #3
4 #4
5 #5

Exact Audio Copy V1.1 from 23. June 2015

EAC extraction logfile from 7. October 2015, 8:02

Nisennenmondai / #N/A

Used drive : PLEXTOR DVDR PX-891SAW Adapter: 1 ID: 0

Read mode : Secure
Utilize accurate stream : Yes
Defeat audio cache : Yes
Make use of C2 pointers : No

Read offset correction : 48
Overread into Lead-In and Lead-Out : No
Fill up missing offset samples with silence : Yes
Delete leading and trailing silent blocks : No
Null samples used in CRC calculations : Yes
Used interface : Native Win32 interface for Win NT & 2000
Gap handling : Appended to previous track

Used output format : User Defined Encoder
Selected bitrate : 1024 kBit/s
Quality : High
Add ID3 tag : No
Command line compressor : C:\Program Files (x86)\Exact Audio Copy\Flac\flac.exe
Additional command line options : -8 -V -T "ARTIST=%artist%" -T "TITLE=%title%" -T "ALBUM=%albumtitle%" -T "DATE=%year%" -T "TRACKNUMBER=%tracknr%" -T "GENRE=%genre%" -T "PERFORMER=%albuminterpret%" -T "COMPOSER=%composer%" %haslyrics%–tag-from-file=LYRICS="%lyricsfile%"%haslyrics% -T "ALBUMARTIST=%albumartist%" -T "DISCNUMBER=%cdnumber%" -T "TOTALDISCS=%totalcds%" -T "TOTALTRACKS=%numtracks%" -T "COMMENT=%comment%" %source% -o %dest%


TOC of the extracted CD

Track | Start | Length | Start sector | End sector
––––––––––––––––––––––––––––-
1 | 0:00.00 | 10:02.29 | 0 | 45178
2 | 10:02.29 | 16:17.47 | 45179 | 118500
3 | 26:20.01 | 3:42.01 | 118501 | 135151
4 | 30:02.02 | 6:39.12 | 135152 | 165088
5 | 36:41.14 | 12:18.15 | 165089 | 220453


Track 1

Filename C:\Rips\01 - #1.wav

Pre-gap length 0:00:02.00

Peak level 91.4 %
Extraction speed 5.3 X
Track quality 100.0 %
Test CRC 53A405B4
Copy CRC 53A405B4
Track not present in AccurateRip database
Copy OK

Track 2

Filename C:\Rips\02 - #2.wav

Peak level 88.4 %
Extraction speed 6.9 X
Track quality 100.0 %
Test CRC 76F18A7A
Copy CRC 76F18A7A
Track not present in AccurateRip database
Copy OK

Track 3

Filename C:\Rips\03 - #3.wav

Peak level 87.2 %
Extraction speed 7.0 X
Track quality 100.0 %
Test CRC 94E32BAC
Copy CRC 94E32BAC
Track not present in AccurateRip database
Copy OK

Track 4

Filename C:\Rips\04 - #4.wav

Peak level 88.1 %
Extraction speed 7.9 X
Track quality 100.0 %
Test CRC 8A8FB23D
Copy CRC 8A8FB23D
Track not present in AccurateRip database
Copy OK

Track 5

Filename C:\Rips\05 - #5.wav

Peak level 87.8 %
Extraction speed 8.9 X
Track quality 100.0 %
Test CRC 1FF6A2DD
Copy CRC 1FF6A2DD
Track not present in AccurateRip database
Copy OK


None of the tracks are present in the AccurateRip database

No errors occurred

End of status report

–– CUETools DB Plugin V2.1.6

[CTDB TOCID: zrIDp1PtFmGZJvEQJKvs9521Qpk-] found
Submit result: zrIDp1PtFmGZJvEQJKvs9521Qpk- has been confirmed
Track | CTDB Status
1 | (2/2) Accurately ripped
2 | (2/2) Accurately ripped
3 | (2/2) Accurately ripped
4 | (2/2) Accurately ripped
5 | (2/2) Accurately ripped


==== Log checksum F37ABDBD9799ED4566175D504286B04E0DC3EE19BB09E7915AE662B4A24CD9A5 ====

Thanks to the Original ripper IAmNerdPunk !