Subcategories

Nnenna Freelon - Better Than Anything: The Quintessential Nnenna Freelon (2008)

Posted By: stfine
Nnenna Freelon - Better Than Anything: The Quintessential Nnenna Freelon (2008)

Nnenna Freelon - Better Than Anything: The Quintessential Nnenna Freelon (2008)
EAC rip | FLAC image + cue + log + scans / MP3 320 kbps | 00:58:03 | 366 MB / 136 MB (3% rec.)
Contemporary Jazz, Vocal Jazz, Standards | Label: Concord Records, CCD-30514

Nnenna Freelon is an world-renown American Jazz singer, composer, producer, arranger, and a six-time Grammy nominee. This collection was specifically chosen and sequenced not so much as a greatest hits package but to present the powerful scope and expanse of Nnenna's artistic appeal. Here you'll hear big band Jazz sound (with big bass, horns, and skatting a-plenty), Latin-tinged tunes, male acapella vocals, piano/gospel ballads, and even the Jazz-Reggae treatment of "Body and Soul".

Tracklist (Amazon samples)

1. Better Than Anything [04:56]
2. I Won't Dance [04:35]
3. Straighten Up And Fly Right (Featuring Take 6) [03:25]
4. Nature Boy [04:15]
5. Them There Eyes [05:13]
6. I Say A Little Prayer [04:18]
7. Body And Soul [04:54]
8. Button Up Your Overcoat [05:00]
9. The Tears Of A Clown [07:27]
10. Ooh Child [05:13]
11. One Child At A Time [03:59]
12. Balm In Gilead [04:48]

Total time 00:58:03

Exact Audio Copy V0.99 prebeta 5 from 4. May 2009

EAC extraction logfile from 15. June 2011, 23:17

Nnenna Freelon / Better Than Anything

Used drive : TEAC DW-552G Adapter: 1 ID: 0

Read mode : Secure
Utilize accurate stream : Yes
Defeat audio cache : Yes
Make use of C2 pointers : No

Read offset correction : 6
Overread into Lead-In and Lead-Out : No
Fill up missing offset samples with silence : Yes
Delete leading and trailing silent blocks : No
Null samples used in CRC calculations : Yes
Used interface : Installed external ASPI interface

Used output format : User Defined Encoder
Selected bitrate : 128 kBit/s
Quality : High
Add ID3 tag : No
Command line compressor : C:\Program Files\Exact Audio Copy\Flac\flac.exe
Additional command line options : -8 -V %s


TOC of the extracted CD

Track | Start | Length | Start sector | End sector
––––––––––––––––––––––––––––-
1 | 0:00.00 | 4:56.20 | 0 | 22219
2 | 4:56.20 | 4:35.21 | 22220 | 42865
3 | 9:31.41 | 3:25.20 | 42866 | 58260
4 | 12:56.61 | 4:15.40 | 58261 | 77425
5 | 17:12.26 | 5:13.00 | 77426 | 100900
6 | 22:25.26 | 4:18.06 | 100901 | 120256
7 | 26:43.32 | 4:54.25 | 120257 | 142331
8 | 31:37.57 | 5:00.71 | 142332 | 164902
9 | 36:38.53 | 7:27.73 | 164903 | 198500
10 | 44:06.51 | 5:13.10 | 198501 | 221985
11 | 49:19.61 | 3:59.43 | 221986 | 239953
12 | 53:19.29 | 4:48.68 | 239954 | 261621


Range status and errors

Selected range

Filename D:\РАЗДАЧИ\Nnenna Freelon - Better Than Anything\Nnenna Freelon - Better Than Anything.wav

Peak level 100.0 %
Range quality 99.9 %
Test CRC 7CDE6E8F
Copy CRC 7CDE6E8F
Copy OK

No errors occurred

End of status report

Nnenna Freelon - Better Than Anything: The Quintessential Nnenna Freelon (2008)

Nnenna Freelon - Better Than Anything: The Quintessential Nnenna Freelon (2008)