Subcategories

No Age - Snares Like a Haircut (2018)

Posted By: aasana
No Age - Snares Like a Haircut (2018)

No Age - Snares Like a Haircut (2018)
EAC Rip | FLAC (tracks+.cue) | 00:39:17 | 256,42 MB
Indie Rock, Noise Pop | Label: Drag City

Rock and roll for the black hole - reimagined rippers, for the misfits that 2017 couldn't kill to blast under the shadow of the big boot and beyond the glow of the chemical horizon. This is driving music, and you're the designated shotgun rider - get in!

Tracklist:
01. No Age - Cruise Control
02. No Age - Stuck in the Changer
03. No Age - Drippy
04. No Age - Send Me
05. No Age - Snares Like a Haircut
06. No Age - Tidal
07. No Age - Soft Collar Fad
08. No Age - Popper
09. No Age - Secret Swamp
10. No Age - Third Grade Rave
11. No Age - Squashed
12. No Age - Primitive Plus

Exact Audio Copy V1.0 beta 4 from 7. December 2014

EAC extraction logfile from 5. February 2018, 4:26

No Age / Snares Like a Haircut

Used drive : PIONEER DVD-RW DVR-116D Adapter: 1 ID: 0

Read mode : Secure
Utilize accurate stream : Yes
Defeat audio cache : Yes
Make use of C2 pointers : No

Read offset correction : 96
Overread into Lead-In and Lead-Out : No
Fill up missing offset samples with silence : Yes
Delete leading and trailing silent blocks : No
Null samples used in CRC calculations : Yes
Used interface : Native Win32 interface for Win NT & 2000
Gap handling : Appended to previous track

Used output format : User Defined Encoder
Selected bitrate : 1024 kBit/s
Quality : High
Add ID3 tag : No
Command line compressor : C:\Program Files (x86)\Exact Audio Copy\Flac\flac.exe
Additional command line options : -8 -V -T "ARTIST=%artist%" -T "TITLE=%title%" -T "ALBUM=%albumtitle%" -T "DATE=%year%" -T "TRACKNUMBER=%tracknr%" -T "GENRE=%genre%" -T "PERFORMER=%albuminterpret%" -T "COMPOSER=%composer%" %haslyrics%–tag-from-file=LYRICS="%lyricsfile%"%haslyrics% -T "ALBUMARTIST=%albumartist%" -T "DISCNUMBER=%cdnumber%" -T "TOTALDISCS=%totalcds%" -T "TOTALTRACKS=%numtracks%" -T "COMMENT=%comment%" %source% -o %dest%


TOC of the extracted CD

Track | Start | Length | Start sector | End sector
––––––––––––––––––––––––––––-
1 | 0:00.00 | 3:31.38 | 0 | 15862
2 | 3:31.38 | 3:14.36 | 15863 | 30448
3 | 6:45.74 | 2:38.44 | 30449 | 42342
4 | 9:24.43 | 3:55.16 | 42343 | 59983
5 | 13:19.59 | 3:44.38 | 59984 | 76821
6 | 17:04.22 | 3:30.58 | 76822 | 92629
7 | 20:35.05 | 2:26.34 | 92630 | 103613
8 | 23:01.39 | 2:42.47 | 103614 | 115810
9 | 25:44.11 | 2:47.12 | 115811 | 128347
10 | 28:31.23 | 2:48.53 | 128348 | 141000
11 | 31:20.01 | 4:19.45 | 141001 | 160470
12 | 35:39.46 | 3:38.24 | 160471 | 176844


Track 1

Filename C:\new flac rips\No Age - 2018 - Snares Like a Haircut (DC694)\01 Cruise Control.wav

Pre-gap length 0:00:02.00

Peak level 98.9 %
Extraction speed 3.6 X
Track quality 99.9 %
Test CRC 5C8504FD
Copy CRC 5C8504FD
Track not present in AccurateRip database
Copy OK

Track 2

Filename C:\new flac rips\No Age - 2018 - Snares Like a Haircut (DC694)\02 Stuck in the Changer.wav

Peak level 98.9 %
Extraction speed 4.4 X
Track quality 100.0 %
Test CRC FF37E462
Copy CRC FF37E462
Track not present in AccurateRip database
Copy OK

Track 3

Filename C:\new flac rips\No Age - 2018 - Snares Like a Haircut (DC694)\03 Drippy.wav

Peak level 98.9 %
Extraction speed 4.5 X
Track quality 100.0 %
Test CRC 811D459A
Copy CRC 811D459A
Track not present in AccurateRip database
Copy OK

Track 4

Filename C:\new flac rips\No Age - 2018 - Snares Like a Haircut (DC694)\04 Send Me.wav

Peak level 98.9 %
Extraction speed 5.1 X
Track quality 100.0 %
Test CRC 91EEA476
Copy CRC 91EEA476
Track not present in AccurateRip database
Copy OK

Track 5

Filename C:\new flac rips\No Age - 2018 - Snares Like a Haircut (DC694)\05 Snares Like a Haircut.wav

Peak level 98.8 %
Extraction speed 5.4 X
Track quality 100.0 %
Test CRC 9FC95027
Copy CRC 9FC95027
Track not present in AccurateRip database
Copy OK

Track 6

Filename C:\new flac rips\No Age - 2018 - Snares Like a Haircut (DC694)\06 Tidal.wav

Peak level 98.9 %
Extraction speed 5.6 X
Track quality 100.0 %
Test CRC 341E42DB
Copy CRC 341E42DB
Track not present in AccurateRip database
Copy OK

Track 7

Filename C:\new flac rips\No Age - 2018 - Snares Like a Haircut (DC694)\07 Soft Collar Fad.wav

Peak level 98.8 %
Extraction speed 5.4 X
Track quality 100.0 %
Test CRC 9D0731D0
Copy CRC 9D0731D0
Track not present in AccurateRip database
Copy OK

Track 8

Filename C:\new flac rips\No Age - 2018 - Snares Like a Haircut (DC694)\08 Popper.wav

Peak level 98.8 %
Extraction speed 5.7 X
Track quality 100.0 %
Test CRC 69644C26
Copy CRC 69644C26
Track not present in AccurateRip database
Copy OK

Track 9

Filename C:\new flac rips\No Age - 2018 - Snares Like a Haircut (DC694)\09 Secret Swamp.wav

Peak level 98.9 %
Extraction speed 5.9 X
Track quality 100.0 %
Test CRC 37BB4CC4
Copy CRC 37BB4CC4
Track not present in AccurateRip database
Copy OK

Track 10

Filename C:\new flac rips\No Age - 2018 - Snares Like a Haircut (DC694)\10 Third Grade Rave.wav

Peak level 98.9 %
Extraction speed 6.1 X
Track quality 100.0 %
Test CRC C0EA1271
Copy CRC C0EA1271
Track not present in AccurateRip database
Copy OK

Track 11

Filename C:\new flac rips\No Age - 2018 - Snares Like a Haircut (DC694)\11 Squashed.wav

Peak level 98.8 %
Extraction speed 6.0 X
Track quality 99.9 %
Test CRC 952A6F9B
Copy CRC 952A6F9B
Track not present in AccurateRip database
Copy OK

Track 12

Filename C:\new flac rips\No Age - 2018 - Snares Like a Haircut (DC694)\12 Primitive Plus.wav

Peak level 98.9 %
Extraction speed 6.8 X
Track quality 100.0 %
Test CRC E4038C1A
Copy CRC E4038C1A
Track not present in AccurateRip database
Copy OK


None of the tracks are present in the AccurateRip database

No errors occurred

End of status report

–– CUETools DB Plugin V2.1.4

[CTDB TOCID: f7P3N8yHKYMrKChQ4Hy__YS7lUA-] found
Submit result: f7P3N8yHKYMrKChQ4Hy__YS7lUA- has been confirmed
Track | CTDB Status
1 | (3/3) Accurately ripped
2 | (3/3) Accurately ripped
3 | (3/3) Accurately ripped
4 | (3/3) Accurately ripped
5 | (3/3) Accurately ripped
6 | (3/3) Accurately ripped
7 | (3/3) Accurately ripped
8 | (3/3) Accurately ripped
9 | (3/3) Accurately ripped
10 | (3/3) Accurately ripped
11 | (3/3) Accurately ripped
12 | (3/3) Accurately ripped


==== Log checksum 168BCA9CCC55E28E0C1C91F7D219F22D5017210E96976BE894623B098B5CB9C7 ====