Subcategories

Notting Hillbillies (with Mark Knopfler) – Missing…Presumed Having A Good Time (1990) (Repost)

Posted By: janwal46
Notting Hillbillies (with Mark Knopfler) – Missing…Presumed Having A Good Time (1990) (Repost)

Notting Hillbillies (with Mark Knopfler) – Missing…Presumed Having A Good Time (1990) (Repost)

Notting Hillbillies (with Mark Knopfler) – Missing…Presumed Having A Good Time (1990)
Warner Bros. Digital Recording | 1990 | Country Rock | EAC RIP | FLAC+CUE+LOG+HQ-Covers (400Dpi) | 228Mb+26Mb

The Notting Hillbillies (four pals from England: Mark Knopfler, Guy Fletcher, Steve Phillips and Brendan Croker) was a bluegrass band formed in the late 1980s. In 1990 they released Missing…Presumed Having a Good Time, their first and last album. That fact alone is a shame because Missing is just so good. The track list is a mixture of old, old bluegrass/blues numbers and original compositions written by the band members - Knopfler's signature guitar work is heard clearly on several of the tracks, especially the mournful "Feel Like Going Home" finale. What makes this CD so special is the unpretentious mood and feel that you get from the songs - it's the perfect album for just relaxing and having a good, easy time. It is difficult to pick a favourite song, but the real stand-outs are the atmospheric "Railroad Worksong," bluesy "Your Own Sweet Way" (Knopfler's original), "Will You Miss Me," calypso pastiche "One Way Gal," the wonderful "Weapon of Prayer" and of course the weepy "Feel Like Going Home." You won't find banjos or fiddles, but you will find plenty of heart and just simply good music. The word for this album is "laid back." It's one of those few CDs that rank on my essentials list, and I would recommend it to anyone.

Personnel:

Mark Knopfler - Guitars & Vocals
Brendan Croker - Guitars & Vocals
Steve Phillips - Guitars & Vocals
Guy Fletcher - Keyboards & Vocals
Guests:
Paul Franklin - Pedal Steel Guitar
Ed Bicknell - Drums
Marcus Cliff - Bass
Chris White - Saxophone

Producers - Mark Knopfler & Guy Fletcher

Tracklist:

01. Railroad Worksong
02. Bewildered
03. Your Own Sweet Way
04. Run Me Down
05. One Way Gal
06. Blues Stay Away From Me
07. Will You Miss Me
08. Please Baby
09. Weapon Of Prayer
10. That's Where I Belong
11. Feel Like Going Home

Recorded At Mark Knopfler's Private Studio, Notting Hill, London, U.K.

Sound Quality: 9

Exact Audio Copy V0.99 prebeta 4 from 23. January 2008

EAC extraction logfile from 27. August 2009, 12:10

Notting Hillbillies / Missing… Presumed Having A Good Time

Used drive : _NEC DVD_RW ND-3520A Adapter: 1 ID: 1

Read mode : Secure
Utilize accurate stream : Yes
Defeat audio cache : Yes
Make use of C2 pointers : No

Read offset correction : 48
Overread into Lead-In and Lead-Out : No
Fill up missing offset samples with silence : Yes
Delete leading and trailing silent blocks : No
Null samples used in CRC calculations : No
Used interface : Native Win32 interface for Win NT & 2000

Used output format : Internal WAV Routines
Sample format : 44.100 Hz; 16 Bit; Stereo


TOC of the extracted CD

Track | Start | Length | Start sector | End sector
––––––––––––––––––––––––––––-
1 | 0:00.32 | 5:28.58 | 32 | 24689
2 | 5:29.15 | 2:37.30 | 24690 | 36494
3 | 8:06.45 | 4:32.47 | 36495 | 56941
4 | 12:39.17 | 2:25.55 | 56942 | 67871
5 | 15:04.72 | 3:10.05 | 67872 | 82126
6 | 18:15.02 | 3:51.20 | 82127 | 99471
7 | 22:06.22 | 3:52.10 | 99472 | 116881
8 | 25:58.32 | 3:50.35 | 116882 | 134166
9 | 29:48.67 | 3:10.35 | 134167 | 148451
10 | 32:59.27 | 2:51.73 | 148452 | 161349
11 | 35:51.25 | 4:52.15 | 161350 | 183264


Range status and errors

Selected range

Filename G:\AVAXHOME\Notting Hillbillies - Missing… Presumed Having A Good Time (1990)\Notting Hillbillies - Missing… Presumed Having A Good Time.wav

Peak level 100.0 %
Range quality 99.9 %
Copy CRC 334BFE06
Copy OK

No errors occurred


AccurateRip summary

Track 1 accurately ripped (confidence 36) [62FFB7F6]
Track 2 accurately ripped (confidence 37) [58F7916C]
Track 3 accurately ripped (confidence 38) [52654BBC]
Track 4 accurately ripped (confidence 37) [2367DA73]
Track 5 accurately ripped (confidence 38) [5C1878A4]
Track 6 accurately ripped (confidence 35) [8F91F94F]
Track 7 accurately ripped (confidence 38) [1EE3391C]
Track 8 accurately ripped (confidence 37) [2ECE4A32]
Track 9 accurately ripped (confidence 35) [5C3BB1C6]
Track 10 accurately ripped (confidence 35) [5C550548]
Track 11 accurately ripped (confidence 35) [B4B31E9C]

All tracks accurately ripped

End of status report

RIPPED BY JANWAL46

RS Links:



In case you encounter dead links in any of my posts, please send me a private message !!!!


Password: janwal46

Say thanks, but please, no mirrors and/or direct links in your comments !!!!