Subcategories

VA - Nowhere (Music From The Gregg Araki Movie) (Promotional Copy)(1997)

Posted By: muddboogers
VA - Nowhere (Music From The Gregg Araki Movie) (Promotional Copy)(1997)

VA - Nowhere (Music From The Gregg Araki Movie) (Promotional Copy)(1997)
EAC | FLAC Image with CUE & LOG | 64:00 mins | Scans | RAR 3% Recovery | 440 MB
Alternative / Indie Rock / Electronica | 1997 Mercury Records #314 534 522-2AD

This soundtrack was well-curated by the standards of the late 90s, and as a result retains real musical integrity more than 10 years later. ~Brett Colley, amazon.com
VA - Nowhere (Music From The Gregg Araki Movie) (Promotional Copy)(1997)

Nowhere @ Discogs

Tracklist:
1. Intro (0:06)
2. 311 – Freak Out (3:44)
3. Radiohead – How Can You Be Sure (4:20)
4. Elastica – In the City (1:30)
5. Hole – Dicknail (3:37)
6. The Chemical Brothers – Life is Sweet (Daft Punk Remix) (8:35)
7. Massive Attack – Daydreaming (Blacksmith Remix) (5:22)
8. Coco and the Bean – Killing Time (Qureysh – Eh? 1 Remix) (4:07)
9. Catherine Wheel – Intravenous (3:30)
10. Curve – Nowhere (4:09)
11. Lush – I Have the Moon (3:52)
12. Ruby – Flippin' Tha Bird (Ceasefire Remix) (5:01)
13. James – Thursday Treatments (3:09)
14. Chuck D – Generation Wrekkked (Danny Saber Rock Remix) (4:34)
15. Marilyn Manson – Kiddie Grinder (Remix) (4:24)
16. The London Suede – Trash (4:19)

Exact Audio Copy V1.0 beta 2 from 29. April 2011

EAC extraction logfile from 25. June 2011, 20:19

Various Artists / Nowhere (Music From The Gregg Araki Movie)

Used drive : TDK CDRW4800B Adapter: 2 ID: 1

Read mode : Secure
Utilize accurate stream : Yes
Defeat audio cache : Yes
Make use of C2 pointers : No

Read offset correction : 6
Overread into Lead-In and Lead-Out : No
Fill up missing offset samples with silence : Yes
Delete leading and trailing silent blocks : No
Null samples used in CRC calculations : Yes
Used interface : Native Win32 interface for Win NT & 2000

Used output format : Internal WAV Routines
Sample format : 44.100 Hz; 16 Bit; Stereo


TOC of the extracted CD

Track | Start | Length | Start sector | End sector
––––––––––––––––––––––––––––-
1 | 0:00.00 | 0:05.57 | 0 | 431
2 | 0:05.57 | 3:43.73 | 432 | 17229
3 | 3:49.55 | 4:20.35 | 17230 | 36764
4 | 8:10.15 | 1:29.67 | 36765 | 43506
5 | 9:40.07 | 3:37.35 | 43507 | 59816
6 | 13:17.42 | 8:35.00 | 59817 | 98441
7 | 21:52.42 | 5:22.03 | 98442 | 122594
8 | 27:14.45 | 4:07.32 | 122595 | 141151
9 | 31:22.02 | 3:29.55 | 141152 | 156881
10 | 34:51.57 | 4:08.48 | 156882 | 175529
11 | 39:00.30 | 3:51.67 | 175530 | 192921
12 | 42:52.22 | 5:00.48 | 192922 | 215469
13 | 47:52.70 | 3:09.07 | 215470 | 229651
14 | 51:02.02 | 4:33.73 | 229652 | 250199
15 | 55:36.00 | 4:23.45 | 250200 | 269969
16 | 59:59.45 | 4:18.47 | 269970 | 289366


Range status and errors

Selected range

Filename E:\[# AvaxHome #]\Various Artists - Nowhere (Music From The Gregg Araki Movie).wav

Peak level 100.0 %
Extraction speed 10.1 X
Range quality 100.0 %
Test CRC 20397BC6
Copy CRC 20397BC6
Copy OK

No errors occurred


AccurateRip summary

Track 1 not present in database
Track 2 accurately ripped (confidence 9) [18857E37] (AR v1)
Track 3 accurately ripped (confidence 10) [61C25726] (AR v1)
Track 4 accurately ripped (confidence 10) [40C1FDA7] (AR v1)
Track 5 accurately ripped (confidence 10) [0F485EF1] (AR v1)
Track 6 accurately ripped (confidence 10) [BB59EAED] (AR v1)
Track 7 accurately ripped (confidence 10) [B85BD120] (AR v1)
Track 8 accurately ripped (confidence 10) [3FFA458B] (AR v1)
Track 9 accurately ripped (confidence 10) [2CB4952B] (AR v1)
Track 10 accurately ripped (confidence 10) [AE4AB8CA] (AR v1)
Track 11 accurately ripped (confidence 10) [755F2EB9] (AR v1)
Track 12 accurately ripped (confidence 10) [A8193183] (AR v1)
Track 13 accurately ripped (confidence 10) [7F5C07A8] (AR v1)
Track 14 accurately ripped (confidence 10) [BA9AB51A] (AR v1)
Track 15 accurately ripped (confidence 10) [DCED78D8] (AR v1)
Track 16 accurately ripped (confidence 10) [C8674953] (AR v1)

15 track(s) accurately ripped
1 track(s) not present in the AccurateRip database

Some tracks could not be verified as accurate

End of status report

==== Log checksum E3CC0A7A5DA90CAFD28120CA07AB0F6B7E35AD1BD9D6DEE055D9A2F871CB9994 ====
FileServe
Part 1
Part 2
Part 3
Part 4
Part 5

FileSonic
Part 1
Part 2
Part 3
Part 4
Part 5

Interchangeable archives

Password: www.AvaxHome.ws